Scorpions - Rock in Rio | 2019 | HDTVRip - Лумина Одобрено администрацией

Участники
  • Раздают9
  • Качают2
  • Просмотров86
  • Скачали3
  • Комментариев0
  • Список файлов1
Залил раздачу
Поблагодарить
Никто
Характеристики
Вес1.45 GB (1,558,601,728)
Залит2019-10-13 20:33:57 Обновлено2019-10-13 20:35:40
Сетевая Нет
  http://s002.radikal.ru/i198/1306/cb/972fbdf9be7a.gif
Чтобы скачать, необходимо авторизоваться или зарегистрироваться.
Статус: Одобрено администрацией
Хотите видеть детали Раздачи пройдите авторизацию или регистрацию!

Спасибо за понимание...
General
Complete name               : C:\Users\Skipper\Desktop\Скорпионс\Scorpions-Rock.in.Rio.2019.XviD.HDTVRip-Лумина.avi
Format                      : AVI
Format/Info                 : Audio Video Interleave
File size                   : 1.45 GiB
Duration                    : 1 h 41 min
Overall bit rate            : 2 042 kb/s
Writing application         : VirtualDubMod 1.5.10.3 | www.virtualdub-fr.org || (build 2550/release)
Writing library             : VirtualDubMod build 2550/release

Video
ID                          : 0
Format                      : MPEG-4 Visual
Format profile              : Advanced Simple@L5
Format settings             : BVOP2 / Custom Matrix
Format settings, BVOP       : 2
Format settings, QPel       : No
Format settings, GMC        : No warppoints
Format settings, Matrix     : Custom
Codec ID                    : XVID
Codec ID/Hint               : XviD
Duration                    : 1 h 41 min
Bit rate                    : 1 648 kb/s
Width                       : 720 pixels
Height                      : 400 pixels
Display aspect ratio        : 16:9
Frame rate                  : 23.976 (24000/1001) FPS
Original frame rate         : 23.976 (23976/1000) FPS
Color space                 : YUV
Chroma subsampling          : 4:2:0
Bit depth                   : 8 bits
Scan type                   : Progressive
Compression mode            : Lossy
Bits/(Pixel*Frame)          : 0.239
Stream size                 : 1.17 GiB (81%)
Writing library             : XviD 1.2.1 (UTC 2008-12-04)

Audio
ID                          : 1
Format                      : AC-3
Format/Info                 : Audio Coding 3
Codec ID                    : 2000
Duration                    : 1 h 41 min
Bit rate mode               : Constant
Bit rate                    : 384 kb/s
Channel(s)                  : 6 channels
Channel positions           : Front: L C R, Side: L R, LFE
Sampling rate               : 48.0 kHz
Frame rate                  : 31.250 FPS (1536 SPF)
Bit depth                   : 16 bits
Compression mode            : Lossy
Stream size                 : 280 MiB (19%)
Alignment                   : Split accross interleaves
Interleave, duration        : 42  ms (1.00 video frame)
Interleave, preload duratio : 500  ms
Service kind                : Complete Main

https://a.radikal.ru/a23/1910/33/cacf78435bdet.jpg
https://b.radikal.ru/b04/1910/8f/b77ca8b9988ct.jpg
https://a.radikal.ru/a05/1910/23/a3924fa49c10t.jpg
https://d.radikal.ru/d30/1910/14/811db927d561t.jpg
https://b.radikal.ru/b24/1910/b1/b0a130a20adft.jpg
https://a.radikal.ru/a20/1910/ad/aa083bb12d1bt.jpg
01. Going Out With a Bang
02. Make It Real
03. The Zoo
04. Coast to Coast
05. Top of the Bill / Steamrock Fever / Speedy's Coming / Catch Your Train (70's medley)
06. We Built This House
07. Delicate Dance
08. Cidade Maravilhosa ([traditional] cover) (Tribute to Rio)
09. Send Me an Angel
10. Wind of Change
11. Tease Me Please Me
12. Drum Solo
13. Blackout
14. Big City Nights
Encore:
15. Still Loving You
16. Rock You Like a Hurricane


Привет, гость
- Запомнить
Регистрация
Информация

Торрент трекер ExKinoRay.TV

Здесь вы можете скачать новые фильмы, сериалы, игры, музыку, софт и многое другое. Большая скорость скачивания на мультитрекерных раздачах. Всё абсолютно бесплатно.