Ария - Гость из Царства Теней [Extended version] | 2019 | WEB-DLRip - Лумина Одобрено администрацией

Участники
  • Раздают17
  • Качают0
  • Просмотров59
  • Скачали1
  • Комментариев0
  • Список файлов1
Залил раздачу
Поблагодарить
Характеристики
Вес2.00 GB (2,145,951,744)
Залит2019-10-17 10:47:36 Обновлено2019-10-17 10:48:03
Сетевая Да
  http://s002.radikal.ru/i198/1306/cb/972fbdf9be7a.gif
Чтобы скачать, необходимо авторизоваться или зарегистрироваться.
Статус: Одобрено администрацией
Хотите видеть детали Раздачи пройдите авторизацию или регистрацию!

Спасибо за понимание...
General
Complete name               : C:\Users\Skipper\Desktop\Ария\Ария-Гость.из.Царства Теней(Extended.version) .2019.XviD.WEBDL-Rip-Лумина.avi
Format                      : AVI
Format/Info                 : Audio Video Interleave
Format profile              : OpenDML
File size                   : 2.00 GiB
Duration                    : 2 h 20 min
Overall bit rate            : 2 040 kb/s
Writing application         : VirtualDubMod 1.5.10.3 | www.virtualdub-fr.org || (build 2550/release)
Writing library             : VirtualDubMod build 2550/release

Video
ID                          : 0
Format                      : MPEG-4 Visual
Format profile              : Advanced Simple@L5
Format settings             : BVOP2 / Custom Matrix
Format settings, BVOP       : 2
Format settings, QPel       : No
Format settings, GMC        : No warppoints
Format settings, Matrix     : Custom
Codec ID                    : XVID
Codec ID/Hint               : XviD
Duration                    : 2 h 20 min
Bit rate                    : 1 771 kb/s
Width                       : 720 pixels
Height                      : 400 pixels
Display aspect ratio        : 16:9
Frame rate                  : 25.000 FPS
Color space                 : YUV
Chroma subsampling          : 4:2:0
Bit depth                   : 8 bits
Scan type                   : Progressive
Compression mode            : Lossy
Bits/(Pixel*Frame)          : 0.246
Stream size                 : 1.74 GiB (87%)
Writing library             : XviD 1.2.1 (UTC 2008-12-04)

Audio
ID                          : 1
Format                      : AC-3
Format/Info                 : Audio Coding 3
Codec ID                    : 2000
Duration                    : 2 h 20 min
Bit rate mode               : Constant
Bit rate                    : 256 kb/s
Channel(s)                  : 2 channels
Channel positions           : Front: L R
Sampling rate               : 48.0 kHz
Frame rate                  : 31.250 FPS (1536 SPF)
Bit depth                   : 16 bits
Compression mode            : Lossy
Stream size                 : 257 MiB (13%)
Alignment                   : Split accross interleaves
Interleave, duration        : 40  ms (1.00 video frame)
Interleave, preload duratio : 500  ms
Service kind                : Complete Main

https://b.radikal.ru/b37/1910/e7/5f333688a2a7t.jpg
https://a.radikal.ru/a33/1910/e3/1932075c10c0t.jpg
https://d.radikal.ru/d37/1910/b4/a46f05024717t.jpg
https://a.radikal.ru/a36/1910/2b/adc07fcade93t.jpg
https://b.radikal.ru/b37/1910/29/34629482523ct.jpg
https://b.radikal.ru/b37/1910/d8/ff690cde8c63t.jpg
01. Гонка за славой
02. Убить дракона
03. Герой асфальта
04. Эра Люцифера
05. Проклятье морей
06. Колизей
07. Крещение огнём
08. Варяг
09. Точка невозврата
10. Пусть будет так
11. Штиль
12. Палач
13. Антихрист
14. Обман
15. Небо тебя найдёт
16. Ночь короче дня
17. Тореро
18. Улица роз


Привет, гость
- Запомнить
Регистрация
Информация

Торрент трекер ExKinoRay.TV

Здесь вы можете скачать новые фильмы, сериалы, игры, музыку, софт и многое другое. Большая скорость скачивания на мультитрекерных раздачах. Всё абсолютно бесплатно.