Максим Фадеев - Большой сольный концерт впервые за 25 лет | 2018 | WEB-DLRip - Лумина Одобрено администрацией

Участники
  • Раздают12
  • Качают1
  • Просмотров19
  • Скачали1
  • Комментариев0
  • Список файлов1
Залил раздачу
Поблагодарить
Никто
Характеристики
Вес1.37 GB (1,467,961,344)
Залит2019-10-17 12:03:40 Обновлено2019-10-17 12:04:04
Сетевая Да
  http://s002.radikal.ru/i198/1306/cb/972fbdf9be7a.gif
Чтобы скачать, необходимо авторизоваться или зарегистрироваться.
Статус: Одобрено администрацией
Хотите видеть детали Раздачи пройдите авторизацию или регистрацию!

Спасибо за понимание...
General
Complete name               : C:\Users\Skipper\Desktop\Фадеев\Максим.Фадеев-Большой.сольный.концерт.впервые.за.25.лет.2018.XviD.WEB-DLRip-Лумина.avi
Format                      : AVI
Format/Info                 : Audio Video Interleave
File size                   : 1.37 GiB
Duration                    : 1 h 29 min
Overall bit rate            : 2 176 kb/s
Writing application         : VirtualDubMod 1.5.10.3 | www.virtualdub-fr.org || (build 2550/release)
Writing library             : VirtualDubMod build 2550/release

Video
ID                          : 0
Format                      : MPEG-4 Visual
Format profile              : Advanced Simple@L5
Format settings             : BVOP2 / Custom Matrix
Format settings, BVOP       : 2
Format settings, QPel       : No
Format settings, GMC        : No warppoints
Format settings, Matrix     : Custom
Codec ID                    : XVID
Codec ID/Hint               : XviD
Duration                    : 1 h 29 min
Bit rate                    : 2 038 kb/s
Width                       : 720 pixels
Height                      : 400 pixels
Display aspect ratio        : 16:9
Frame rate                  : 25.000 FPS
Color space                 : YUV
Chroma subsampling          : 4:2:0
Bit depth                   : 8 bits
Scan type                   : Progressive
Compression mode            : Lossy
Bits/(Pixel*Frame)          : 0.283
Stream size                 : 1.28 GiB (94%)
Writing library             : XviD 1.2.1 (UTC 2008-12-04)

Audio
ID                          : 1
Format                      : MPEG Audio
Format version              : Version 1
Format profile              : Layer 3
Format settings             : Joint stereo
Codec ID                    : 55
Codec ID/Hint               : MP3
Duration                    : 1 h 29 min
Bit rate mode               : Constant
Bit rate                    : 128 kb/s
Channel(s)                  : 2 channels
Sampling rate               : 48.0 kHz
Frame rate                  : 41.667 FPS (1152 SPF)
Compression mode            : Lossy
Stream size                 : 82.4 MiB (6%)
Alignment                   : Aligned on interleaves
Interleave, duration        : 40  ms (1.00 video frame)
Interleave, preload duratio : 504  ms
Writing library             : LAME3.99r
Encoding settings           : -m j -V 4 -q 2 -lowpass 17 -b 128

https://a.radikal.ru/a26/1910/2c/c4208a7bbb82t.jpg
https://d.radikal.ru/d21/1910/cd/2cebbe404f64t.jpg
https://b.radikal.ru/b42/1910/e3/57a3ae726741t.jpg
https://c.radikal.ru/c41/1910/6e/4846b3653059t.jpg
https://b.radikal.ru/b12/1910/d7/7809850fb243t.jpg
https://d.radikal.ru/d02/1910/88/1df4219cbe2dt.jpg
01. Азан
02. Сестричка
03. Лети за мной
04. Тихо несёт вода
05. Breach the line
06. Беги по небу
07. Орлы или вороны (дуэт с Григорием Лепсом)
08. Я не могу
09. Танцы на стёклах
10. Одно и то же
11. Иди на мой голос
12. Прости, моя любовь (Эмин)
13. Вдвоём (дуэт с Наргизой)
14. Прощай, любимый город (вместе с Бастой и Наргизой)
15. Пьяная пятница
16. Притяженья больше нет (вместе с группой "SEREBRO"
17. Рассыпая серебро (дуэт с Molly)
18. Стану ли я счастливей


Привет, гость
- Запомнить
Регистрация
Информация

Торрент трекер ExKinoRay.TV

Здесь вы можете скачать новые фильмы, сериалы, игры, музыку, софт и многое другое. Большая скорость скачивания на мультитрекерных раздачах. Всё абсолютно бесплатно.