Whitesnake - Rock in Rio | 2019 | HDTVRip - New-Team Одобрено администрацией

Участники
  • Раздают6
  • Качают0
  • Просмотров128
  • Скачали2
  • Комментариев0
  • Список файлов1
Залил раздачу
Поблагодарить
Никто
Характеристики
Вес1.09 GB (1,167,093,760)
Залит2019-10-19 18:13:58 Обновлено2019-10-19 18:14:52
Сетевая Нет
   http://picplus.ru/img/1902/09/3dbacf35.png  http://s002.radikal.ru/i198/1306/cb/972fbdf9be7a.gif
Чтобы скачать, необходимо авторизоваться или зарегистрироваться.
Статус: Одобрено администрацией
Хотите видеть детали Раздачи пройдите авторизацию или регистрацию!

Спасибо за понимание...
General
Complete name               : C:\Users\Skipper\Desktop\Muse\Whitesnake-Rock.in.Rio.2019.XviD.HDTVRip-Лумина.avi
Format                      : AVI
Format/Info                 : Audio Video Interleave
File size                   : 1.09 GiB
Duration                    : 1 h 0 min
Overall bit rate            : 2 585 kb/s
Writing application         : VirtualDubMod 1.5.10.3 | www.virtualdub-fr.org || (build 2550/release)
Writing library             : VirtualDubMod build 2550/release

Video
ID                          : 0
Format                      : MPEG-4 Visual
Format profile              : Advanced Simple@L5
Format settings             : BVOP2 / Custom Matrix
Format settings, BVOP       : 2
Format settings, QPel       : No
Format settings, GMC        : No warppoints
Format settings, Matrix     : Custom
Codec ID                    : XVID
Codec ID/Hint               : XviD
Duration                    : 1 h 0 min
Bit rate                    : 2 192 kb/s
Width                       : 720 pixels
Height                      : 400 pixels
Display aspect ratio        : 16:9
Frame rate                  : 23.976 (24000/1001) FPS
Original frame rate         : 23.976 (23976/1000) FPS
Color space                 : YUV
Chroma subsampling          : 4:2:0
Bit depth                   : 8 bits
Scan type                   : Progressive
Compression mode            : Lossy
Bits/(Pixel*Frame)          : 0.317
Stream size                 : 944 MiB (85%)
Writing library             : XviD 1.2.1 (UTC 2008-12-04)

Audio
ID                          : 1
Format                      : AC-3
Format/Info                 : Audio Coding 3
Codec ID                    : 2000
Duration                    : 1 h 0 min
Bit rate mode               : Constant
Bit rate                    : 384 kb/s
Channel(s)                  : 6 channels
Channel positions           : Front: L C R, Side: L R, LFE
Sampling rate               : 48.0 kHz
Frame rate                  : 31.250 FPS (1536 SPF)
Bit depth                   : 16 bits
Compression mode            : Lossy
Stream size                 : 165 MiB (15%)
Alignment                   : Split accross interleaves
Interleave, duration        : 42  ms (1.00 video frame)
Interleave, preload duratio : 500  ms
Service kind                : Complete Main

https://a.radikal.ru/a38/1910/b2/de2f89fc00a0t.jpg
https://b.radikal.ru/b25/1910/91/52fea6f5d503t.jpg
https://b.radikal.ru/b06/1910/20/f0df0c913570t.jpg
https://d.radikal.ru/d01/1910/36/ab79a4862420t.jpg
https://c.radikal.ru/c33/1910/5c/5ce846f00396t.jpg
https://a.radikal.ru/a19/1910/a2/0941046812a4t.jpg
September 28, 2019

01. Bad Boys
02. Slide It In
03. Love Ain't No Stranger
04. Hey You (You Make Me Rock)
05. Slow an' Easy
06. Trouble Is Your Middle Name
07. Drum Solo
08. Is This Love
09. Here I Go Again
10. Still of the Night
11. Burn (Deep Purple cover)


Привет, гость
- Запомнить
Регистрация
Информация

Торрент трекер ExKinoRay.TV

Здесь вы можете скачать новые фильмы, сериалы, игры, музыку, софт и многое другое. Большая скорость скачивания на мультитрекерных раздачах. Всё абсолютно бесплатно.