Баста - Концерт на 360 в Олимпийском [Live] | 2017 | WEBRip - New-Team Одобрено администрацией

Участники
  • Раздают20
  • Качают6
  • Просмотров119
  • Скачали3
  • Комментариев0
  • Список файлов1
Залил раздачу
Поблагодарить
Характеристики
Вес1.45 GB (1,559,164,928)
Залит2019-10-19 20:49:48 Обновлено2019-10-19 20:50:36
Сетевая Да
   http://picplus.ru/img/1902/09/3dbacf35.png  http://s002.radikal.ru/i198/1306/cb/972fbdf9be7a.gif
Чтобы скачать, необходимо авторизоваться или зарегистрироваться.
Статус: Одобрено администрацией
Хотите видеть детали Раздачи пройдите авторизацию или регистрацию!

Спасибо за понимание...
General
Complete name               : C:\Users\Skipper\Desktop\Баста\Basta-Konchert.na.360.v.Olimpiyskom.2017.XviD.WEBRip-Лумина.New-team.avi
Format                      : AVI
Format/Info                 : Audio Video Interleave
File size                   : 1.45 GiB
Duration                    : 2 h 2 min
Overall bit rate            : 1 692 kb/s
Writing application         : VirtualDubMod 1.5.10.3 | www.virtualdub-fr.org || (build 2550/release)
Writing library             : VirtualDubMod build 2550/release

Video
ID                          : 0
Format                      : MPEG-4 Visual
Format profile              : Advanced Simple@L5
Format settings             : BVOP2 / Custom Matrix
Format settings, BVOP       : 2
Format settings, QPel       : No
Format settings, GMC        : No warppoints
Format settings, Matrix     : Custom
Codec ID                    : XVID
Codec ID/Hint               : XviD
Duration                    : 2 h 2 min
Bit rate                    : 1 554 kb/s
Width                       : 720 pixels
Height                      : 400 pixels
Display aspect ratio        : 16:9
Frame rate                  : 25.000 FPS
Color space                 : YUV
Chroma subsampling          : 4:2:0
Bit depth                   : 8 bits
Scan type                   : Progressive
Compression mode            : Lossy
Bits/(Pixel*Frame)          : 0.216
Stream size                 : 1.33 GiB (92%)
Writing library             : XviD 1.2.1 (UTC 2008-12-04)

Audio
ID                          : 1
Format                      : MPEG Audio
Format version              : Version 1
Format profile              : Layer 3
Format settings             : Joint stereo / MS Stereo
Codec ID                    : 55
Codec ID/Hint               : MP3
Duration                    : 2 h 2 min
Bit rate mode               : Constant
Bit rate                    : 128 kb/s
Channel(s)                  : 2 channels
Sampling rate               : 48.0 kHz
Frame rate                  : 41.667 FPS (1152 SPF)
Compression mode            : Lossy
Stream size                 : 113 MiB (8%)
Alignment                   : Aligned on interleaves
Interleave, duration        : 40  ms (1.00 video frame)
Interleave, preload duratio : 504  ms
Writing library             : LAME3.99r
Encoding settings           : -m j -V 4 -q 2 -lowpass 17 -b 128

https://b.radikal.ru/b23/1910/ed/2610ce36a947t.jpg
https://b.radikal.ru/b35/1910/55/596fa6bc8818t.jpg
https://c.radikal.ru/c42/1910/66/9bc4c7de3fdbt.jpg
https://a.radikal.ru/a19/1910/fa/8d34b0f747b4t.jpg
https://d.radikal.ru/d33/1910/d3/a6a2a75e7b1dt.jpg
https://b.radikal.ru/b24/1910/d1/7a2f74cba1b9t.jpg
01. Я смотрю на небо
02. Родная (feat. Софи)
03. Там, где нас нет (Из к/ф "Родина"
04. Партизан
05. Мама
06. Всем нашим братьям (feat. Ноггано)
07. Вселенная (feat. Tati)
08. Шар (feat. Смоки Мо & Баста)
09. Хэндз ап!
10. Рэп, который по-лютому прёт
11. Раз и навсегда
12. ЧК (Чистый кайф)
13. Лёд (feat. Скриптонит)
14. Я поднимаюсь над землёй (feat. Алёна Омаргалиева)
15. Калифорния (Live) Баста & Большой симфонический оркестр Санкт-Петербурга
16. Мастер и Маргарита (feat. Юна)
17. Чёрт
18. Солнца не видно (feat. Boombox)
19. Урбан
20. Свобода (feat. Словетский, Смоки Мо, Tati & Билли)
21. Кастинг
22. Моя игра
23. Удивительный мир
24. Выпускной (Медлячок)
25. Сансара (feat. Диана Арбенина, Александр Ф. Скляр, Сергей Бобунец, Sunsay, Скриптонит & Ант)


Привет, гость
- Запомнить
Регистрация
Информация

Торрент трекер ExKinoRay.TV

Здесь вы можете скачать новые фильмы, сериалы, игры, музыку, софт и многое другое. Большая скорость скачивания на мультитрекерных раздачах. Всё абсолютно бесплатно.