Артур Пирожков - Зацепила меня. Первый сольный [Live] | 2019 | HDTVRip - New-Team Одобрено администрацией

Участники
  • Раздают12
  • Качают2
  • Просмотров146
  • Скачали3
  • Комментариев0
  • Список файлов1
Залил раздачу
Поблагодарить
Никто
Характеристики
Вес1.37 GB (1,468,157,952)
Залит2019-10-23 21:36:30 Обновлено2019-10-23 21:39:46
Сетевая Да
   http://picplus.ru/img/1902/09/3dbacf35.png  http://s002.radikal.ru/i198/1306/cb/972fbdf9be7a.gif
Чтобы скачать, необходимо авторизоваться или зарегистрироваться.
Статус: Одобрено администрацией
Хотите видеть детали Раздачи пройдите авторизацию или регистрацию!

Спасибо за понимание...
General
Complete name               : D:\Sarah Brightman\A.Pirozhkov-Pervyi.solinyi.2019.XviD.HDTVRip-Лумина.New-team.avi
Format                      : AVI
Format/Info                 : Audio Video Interleave
File size                   : 1.37 GiB
Duration                    : 1 h 26 min
Overall bit rate            : 2 276 kb/s
Writing application         : VirtualDubMod 1.5.10.3 | www.virtualdub-fr.org || (build 2550/release)
Writing library             : VirtualDubMod build 2550/release

Video
ID                          : 0
Format                      : MPEG-4 Visual
Format profile              : Advanced Simple@L5
Format settings             : BVOP1 / Custom Matrix
Format settings, BVOP       : 1
Format settings, QPel       : No
Format settings, GMC        : No warppoints
Format settings, Matrix     : Custom
Codec ID                    : XVID
Codec ID/Hint               : XviD
Duration                    : 1 h 26 min
Bit rate                    : 2 074 kb/s
Width                       : 720 pixels
Height                      : 304 pixels
Display aspect ratio        : 2.35:1
Frame rate                  : 25.000 FPS
Color space                 : YUV
Chroma subsampling          : 4:2:0
Bit depth                   : 8 bits
Scan type                   : Progressive
Compression mode            : Lossy
Bits/(Pixel*Frame)          : 0.379
Stream size                 : 1.25 GiB (91%)
Writing library             : XviD 1.2.1 (UTC 2008-12-04)

Audio
ID                          : 1
Format                      : AC-3
Format/Info                 : Audio Coding 3
Codec ID                    : 2000
Duration                    : 1 h 26 min
Bit rate mode               : Constant
Bit rate                    : 192 kb/s
Channel(s)                  : 2 channels
Channel positions           : Front: L R
Sampling rate               : 48.0 kHz
Frame rate                  : 31.250 FPS (1536 SPF)
Bit depth                   : 16 bits
Compression mode            : Lossy
Stream size                 : 118 MiB (8%)
Alignment                   : Split accross interleaves
Interleave, duration        : 40  ms (1.00 video frame)
Interleave, preload duratio : 500  ms
Service kind                : Complete Main

https://a.radikal.ru/a23/1910/f4/310e0acdf1c9t.jpg
https://b.radikal.ru/b03/1910/0e/e5a745cc2fd4t.jpg
https://d.radikal.ru/d32/1910/dd/c650c1b3c61ct.jpg
https://b.radikal.ru/b18/1910/8e/5bcb725e966bt.jpg
https://b.radikal.ru/b07/1910/6b/6e058525248at.jpg
https://c.radikal.ru/c42/1910/28/1c71f75f14dft.jpg
01. Артур Пирожков - Чика
02. Артур Пирожков - Пэрэдайс (Артур Пирожков наставит мужу Рожков)
03. Артур Пирожков - Красивая песня
04. Артур Пирожков - Я - Звезда!
05. Артур Пирожков - Она решила сдаться
06. Артур Пирожков - Запутался
07. Артур Пирожков - Любовь
08. Артур Пирожков - Я буду помнить
09. ВладиМир - Только мне решать
10. Артур Пирожков - #какчелентано
11. Артур Пирожков и Вера Брежнева - Luna
12. Артур Пирожков - Кукла
13. ALISA REVVA - Baby Boy
14. Артур Пирожков - Моя Звезда
15. Артур Пирожков - Ну и что
16. Doni и Артур Пирожков - Моя Богиня
17. Артур Пирожков - Либо Любовь
18. Артур Пирожков - Плачь детка плачь
19. Артур Пирожков - Зацепила
20. Артур Пирожков - Чика


Привет, гость
- Запомнить
Регистрация
Информация

Торрент трекер ExKinoRay.TV

Здесь вы можете скачать новые фильмы, сериалы, игры, музыку, софт и многое другое. Большая скорость скачивания на мультитрекерных раздачах. Всё абсолютно бесплатно.