Анна Плетнёва и Винтаж - Сильная девочка [Live] | 2018 | WEBRip - New-Team Одобрено администрацией

Участники
  • Раздают14
  • Качают2
  • Просмотров122
  • Скачали4
  • Комментариев0
  • Список файлов1
Залил раздачу
Поблагодарить
Никто
Характеристики
Вес1.09 GB (1,171,042,304)
Залит2019-10-24 22:10:02 Обновлено2019-10-24 22:10:24
Сетевая Да
   http://picplus.ru/img/1902/09/3dbacf35.png  http://s002.radikal.ru/i198/1306/cb/972fbdf9be7a.gif
Чтобы скачать, необходимо авторизоваться или зарегистрироваться.
Статус: Одобрено администрацией
Хотите видеть детали Раздачи пройдите авторизацию или регистрацию!

Спасибо за понимание...
General
Complete name               : D:\Burito\Vintazh-Silinaya.devochka.2018.XviD.WEBRip-Лумина.New-team.avi
Format                      : AVI
Format/Info                 : Audio Video Interleave
File size                   : 1.09 GiB
Duration                    : 1 h 23 min
Overall bit rate            : 1 865 kb/s
Writing application         : VirtualDubMod 1.5.10.3 | www.virtualdub-fr.org || (build 2550/release)
Writing library             : VirtualDubMod build 2550/release

Video
ID                          : 0
Format                      : MPEG-4 Visual
Format profile              : Advanced Simple@L5
Format settings             : BVOP1 / Custom Matrix
Format settings, BVOP       : 1
Format settings, QPel       : No
Format settings, GMC        : No warppoints
Format settings, Matrix     : Custom
Codec ID                    : XVID
Codec ID/Hint               : XviD
Duration                    : 1 h 23 min
Bit rate                    : 1 727 kb/s
Width                       : 720 pixels
Height                      : 304 pixels
Display aspect ratio        : 2.35:1
Frame rate                  : 25.000 FPS
Color space                 : YUV
Chroma subsampling          : 4:2:0
Bit depth                   : 8 bits
Scan type                   : Progressive
Compression mode            : Lossy
Bits/(Pixel*Frame)          : 0.316
Stream size                 : 1.01 GiB (93%)
Writing library             : XviD 1.2.1 (UTC 2008-12-04)

Audio
ID                          : 1
Format                      : MPEG Audio
Format version              : Version 1
Format profile              : Layer 3
Format settings             : Joint stereo / MS Stereo
Codec ID                    : 55
Codec ID/Hint               : MP3
Duration                    : 1 h 23 min
Bit rate mode               : Constant
Bit rate                    : 128 kb/s
Channel(s)                  : 2 channels
Sampling rate               : 48.0 kHz
Frame rate                  : 41.667 FPS (1152 SPF)
Compression mode            : Lossy
Stream size                 : 76.7 MiB (7%)
Alignment                   : Aligned on interleaves
Interleave, duration        : 40  ms (1.00 video frame)
Interleave, preload duratio : 504  ms
Writing library             : LAME3.99r
Encoding settings           : -m j -V 4 -q 2 -lowpass 17 -b 128

https://c.radikal.ru/c03/1910/b3/963403f53709t.jpg
https://a.radikal.ru/a17/1910/39/3cbb2a828d53t.jpg
https://d.radikal.ru/d26/1910/0e/fb21010a0079t.jpg
https://c.radikal.ru/c03/1910/77/dd8fec09c192t.jpg
https://d.radikal.ru/d29/1910/46/1e9f5664a8f5t.jpg
https://d.radikal.ru/d17/1910/50/a32f25547442t.jpg
01. Растамания
02. Белая
03. Воскресный ангел
04. Ева
05. Немного рекламы
06. Папа
07. Кукла
08. Я верю в любовь
09. Огромное сердце
10. Виктория
11. Стриптиз
12. Сильная девочка
13. Москва (feat. Smash)
14. Плохая девочка
15. Знак Водолея
16. Роман
17. Одиночество любви
Похожих раздач нет


Привет, гость
- Запомнить
Регистрация
Информация

Торрент трекер ExKinoRay.TV

Здесь вы можете скачать новые фильмы, сериалы, игры, музыку, софт и многое другое. Большая скорость скачивания на мультитрекерных раздачах. Всё абсолютно бесплатно.