Винтаж - Запретный мир [Live] | 2015 | HDTVRip (720p) - New-Team Одобрено администрацией

Участники
  • Раздают2
  • Качают1
  • Просмотров104
  • Скачали4
  • Комментариев0
  • Список файлов1
Залил раздачу
Поблагодарить
Никто
Характеристики
Вес4.99 GB (5,353,066,579)
Залит2019-11-07 14:21:04 Обновлено2019-11-07 14:25:11
Сетевая Нет
   http://picplus.ru/img/1902/09/3dbacf35.png  http://s002.radikal.ru/i198/1306/cb/972fbdf9be7a.gif
Чтобы скачать, необходимо авторизоваться или зарегистрироваться.
Статус: Одобрено администрацией
Хотите видеть детали Раздачи пройдите авторизацию или регистрацию!

Спасибо за понимание...
General
Unique ID                   : 237845649110500737659794070100013900395 (0xB2EF67E0F6887B6B8B42F4A2B322626B)
Complete name               : C:\Users\Skipper\Desktop\Vintazh\Vintazh-Zapretnyi.mir.2015.x265.HDTVRip(720p)-Лумина-New-Team.mkv
Format                      : Matroska
Format version              : Version 2
File size                   : 4.99 GiB
Duration                    : 1 h 39 min
Overall bit rate            : 7 200 kb/s
Encoded date                : UTC 2019-11-07 00:23:56
Writing application         : mkvmerge v6.1.0 ('Old Devil') built on Mar  4 2013 09:10:42
Writing library             : libebml v1.3.0 + libmatroska v1.4.0

Video
ID                          : 1
Format                      : AVC
Format/Info                 : Advanced Video Codec
Format profile              : High@L4.1
Format settings             : CABAC / 8 Ref Frames
Format settings, CABAC      : Yes
Format settings, ReFrames   : 8 frames
Codec ID                    : V_MPEG4/ISO/AVC
Duration                    : 1 h 39 min
Bit rate                    : 6 943 kb/s
Width                       : 1 280 pixels
Height                      : 720 pixels
Display aspect ratio        : 16:9
Frame rate mode             : Constant
Frame rate                  : 23.976 (24000/1001) FPS
Color space                 : YUV
Chroma subsampling          : 4:2:0
Bit depth                   : 8 bits
Scan type                   : Progressive
Bits/(Pixel*Frame)          : 0.314
Stream size                 : 4.71 GiB (94%)
Writing library             : x264 core 130 r2273 b3065e6
Encoding settings           : cabac=1 / ref=8 / deblock=1:3:3 / analyse=0x3:0x113 / me=umh / subme=11 / psy=1 / psy_rd=1.00:0.15 / mixed_ref=1 / me_range=48 / chroma_me=1 / trellis=2 / 8x8dct=1 / cqm=0 / deadzone=21,11 / fast_pskip=0 / chroma_qp_offset=-3 / threads=6 / lookahead_threads=1 / sliced_threads=0 / nr=0 / decimate=0 / interlaced=0 / bluray_compat=0 / constrained_intra=0 / bframes=11 / b_pyramid=2 / b_adapt=2 / b_bias=0 / direct=3 / weightb=1 / open_gop=1 / weightp=2 / keyint=240 / keyint_min=23 / scenecut=40 / intra_refresh=0 / rc=2pass / mbtree=0 / bitrate=6943 / ratetol=1.0 / qcomp=0.60 / qpmin=0 / qpmax=69 / qpstep=4 / cplxblur=20.0 / qblur=0.5 / ip_ratio=1.40 / pb_ratio=1.30 / aq=1:1.00
Default                     : Yes
Forced                      : No

Audio
ID                          : 2
Format                      : AC-3
Format/Info                 : Audio Coding 3
Codec ID                    : A_AC3
Duration                    : 1 h 39 min
Bit rate mode               : Constant
Bit rate                    : 256 kb/s
Channel(s)                  : 2 channels
Channel positions           : Front: L R
Sampling rate               : 48.0 kHz
Frame rate                  : 31.250 FPS (1536 SPF)
Bit depth                   : 16 bits
Compression mode            : Lossy
Stream size                 : 182 MiB (4%)
Service kind                : Complete Main
Default                     : Yes
Forced                      : No

https://b.radikal.ru/b03/1911/4a/3cdf91f059c3t.jpg
https://c.radikal.ru/c22/1911/67/e3f8397a7ac6t.jpg
https://a.radikal.ru/a30/1911/fc/1a962c323fc5t.jpg
https://b.radikal.ru/b35/1911/58/7121e8964f18t.jpg
https://d.radikal.ru/d06/1911/19/ae8198f09938t.jpg
https://c.radikal.ru/c28/1911/d1/4f696c210470t.jpg
01. Китайская стена
02. Плохая девочка
03. Boys
04. Когда рядом ты
05. Kosmos
06. Девочки-лунатики (ft. Лена Катина)
07. Я люблю тебя видеть
08. Свежая вода
09. Запретный мир
10. Микки
11. Мама-Америка
12. Деревья
13. Ева
14. Роман
15. Декамерон
16. Религия
17. Одиночество любви
18. Знак водолея
19. Москва


Привет, гость
- Запомнить
Регистрация
Информация

Торрент трекер ExKinoRay.TV

Здесь вы можете скачать новые фильмы, сериалы, игры, музыку, софт и многое другое. Большая скорость скачивания на мультитрекерных раздачах. Всё абсолютно бесплатно.