Винтаж - Запретный мир [Live] | 2015 | HDTVRip - New-Team Одобрено администрацией

Участники
  • Раздают1
  • Качают2
  • Просмотров31
  • Скачали3
  • Комментариев0
  • Список файлов1
Залил раздачу
Поблагодарить
Никто
Характеристики
Вес1.45 GB (1,557,624,832)
Залит2019-11-07 19:23:50 Обновлено2019-11-07 19:51:03
Сетевая Нет
   http://picplus.ru/img/1902/09/3dbacf35.png  http://s002.radikal.ru/i198/1306/cb/972fbdf9be7a.gif
Чтобы скачать, необходимо авторизоваться или зарегистрироваться.
Статус: Одобрено администрацией
Хотите видеть детали Раздачи пройдите авторизацию или регистрацию!

Спасибо за понимание...
General
Complete name               : C:\Users\Skipper\Desktop\Vintazh\Vintazh-Zapretnyi.mir.2015.XviD.HDTVRip-Лумина-New-Team.avi
Format                      : AVI
Format/Info                 : Audio Video Interleave
File size                   : 1.45 GiB
Duration                    : 1 h 39 min
Overall bit rate            : 2 095 kb/s
Writing application         : VirtualDubMod 1.5.10.3 | www.virtualdub-fr.org || (build 2550/release)
Writing library             : VirtualDubMod build 2550/release

Video
ID                          : 0
Format                      : MPEG-4 Visual
Format profile              : Advanced Simple@L5
Format settings             : BVOP1 / Custom Matrix
Format settings, BVOP       : 1
Format settings, QPel       : No
Format settings, GMC        : No warppoints
Format settings, Matrix     : Custom
Codec ID                    : XVID
Codec ID/Hint               : XviD
Duration                    : 1 h 39 min
Bit rate                    : 1 830 kb/s
Width                       : 720 pixels
Height                      : 400 pixels
Display aspect ratio        : 16:9
Frame rate                  : 23.976 (24000/1001) FPS
Color space                 : YUV
Chroma subsampling          : 4:2:0
Bit depth                   : 8 bits
Scan type                   : Progressive
Compression mode            : Lossy
Bits/(Pixel*Frame)          : 0.265
Stream size                 : 1.27 GiB (87%)
Writing library             : XviD 1.2.1 (UTC 2008-12-04)

Audio
ID                          : 1
Format                      : AC-3
Format/Info                 : Audio Coding 3
Codec ID                    : 2000
Duration                    : 1 h 39 min
Bit rate mode               : Constant
Bit rate                    : 256 kb/s
Channel(s)                  : 2 channels
Channel positions           : Front: L R
Sampling rate               : 48.0 kHz
Frame rate                  : 31.250 FPS (1536 SPF)
Bit depth                   : 16 bits
Compression mode            : Lossy
Stream size                 : 182 MiB (12%)
Alignment                   : Split accross interleaves
Interleave, duration        : 42  ms (1.00 video frame)
Interleave, preload duratio : 500  ms
Service kind                : Complete Main

https://c.radikal.ru/c25/1911/df/b52920bf760ft.jpg https://a.radikal.ru/a22/1911/c9/9cf288350d2dt.jpg https://b.radikal.ru/b32/1911/12/03d5ebeea77ct.jpg https://c.radikal.ru/c13/1911/40/ecff79252d22t.jpg https://b.radikal.ru/b06/1911/9f/dc9452376dfft.jpg https://b.radikal.ru/b22/1911/38/925355dc26c1t.jpg
01. Китайская стена
02. Плохая девочка
03. Boys
04. Когда рядом ты
05. Kosmos
06. Девочки-лунатики (ft. Лена Катина)
07. Я люблю тебя видеть
08. Свежая вода
09. Запретный мир
10. Микки
11. Мама-Америка
12. Деревья
13. Ева
14. Роман
15. Декамерон
16. Религия
17. Одиночество любви
18. Знак водолея
19. Москва


Привет, гость
- Запомнить
Регистрация
Информация

Торрент трекер ExKinoRay.TV

Здесь вы можете скачать новые фильмы, сериалы, игры, музыку, софт и многое другое. Большая скорость скачивания на мультитрекерных раздачах. Всё абсолютно бесплатно.