Joe Bonamassa - British Blues Explosion Live | 2018 | BDRip - New-Team Одобрено администрацией

Участники
  • Раздают24
  • Качают4
  • Просмотров28
  • Скачали1
  • Комментариев0
  • Список файлов1
Залил раздачу
Поблагодарить
Никто
Характеристики
Вес1.45 GB (1,558,659,072)
Залит2019-11-12 20:21:28 Обновлено2019-11-12 20:21:48
Сетевая Да
   http://picplus.ru/img/1902/09/3dbacf35.png  http://s002.radikal.ru/i198/1306/cb/972fbdf9be7a.gif
Чтобы скачать, необходимо авторизоваться или зарегистрироваться.
Статус: Одобрено администрацией
Хотите видеть детали Раздачи пройдите авторизацию или регистрацию!

Спасибо за понимание...
General
Complete name               : D:\Joe Bonamassa\Joe.Bonamassa-British.Blues.Explosion.Live.2018.XviD.BDRip-Лумина.New-team.avi
Format                      : AVI
Format/Info                 : Audio Video Interleave
File size                   : 1.45 GiB
Duration                    : 1 h 44 min
Overall bit rate            : 1 991 kb/s
Writing application         : VirtualDubMod 1.5.10.3 | www.virtualdub-fr.org || (build 2550/release)
Writing library             : VirtualDubMod build 2550/release

Video
ID                          : 0
Format                      : MPEG-4 Visual
Format profile              : Advanced Simple@L5
Format settings             : BVOP1 / Custom Matrix
Format settings, BVOP       : 1
Format settings, QPel       : No
Format settings, GMC        : No warppoints
Format settings, Matrix     : Custom
Codec ID                    : XVID
Codec ID/Hint               : XviD
Duration                    : 1 h 44 min
Bit rate                    : 1 598 kb/s
Width                       : 720 pixels
Height                      : 400 pixels
Display aspect ratio        : 16:9
Frame rate                  : 23.976 (24000/1001) FPS
Color space                 : YUV
Chroma subsampling          : 4:2:0
Bit depth                   : 8 bits
Scan type                   : Progressive
Compression mode            : Lossy
Bits/(Pixel*Frame)          : 0.231
Stream size                 : 1.16 GiB (80%)
Writing library             : XviD 1.2.1 (UTC 2008-12-04)

Audio
ID                          : 1
Format                      : AC-3
Format/Info                 : Audio Coding 3
Codec ID                    : 2000
Duration                    : 1 h 44 min
Bit rate mode               : Constant
Bit rate                    : 384 kb/s
Channel(s)                  : 6 channels
Channel positions           : Front: L C R, Side: L R, LFE
Sampling rate               : 48.0 kHz
Frame rate                  : 31.250 FPS (1536 SPF)
Bit depth                   : 16 bits
Compression mode            : Lossy
Stream size                 : 287 MiB (19%)
Alignment                   : Split accross interleaves
Interleave, duration        : 42  ms (1.00 video frame)
Interleave, preload duratio : 500  ms
Service kind                : Complete Main

https://d.radikal.ru/d05/1911/54/bc998a202892t.jpg
https://d.radikal.ru/d03/1911/0c/37bad8f36340t.jpg
https://d.radikal.ru/d22/1911/17/9de85b888e7bt.jpg
https://b.radikal.ru/b29/1911/e7/b7a6f13f25a3t.jpg
https://a.radikal.ru/a23/1911/87/2dfc54d787eat.jpg
https://d.radikal.ru/d02/1911/f2/3ab2560421b5t.jpg
01. British Blues Explosion (Intro)
02. Beck's Bolero / Rice Pudding
03. Mainline Florida
04. Boogie With Stu
05. Let Me Love You Baby
06. Plynth (Water Down The Drain)
07. Spanish Boots
08. Double Crossing Time
09. Motherless Children
10. Band Introduction
11. SWLABR
12. Tea For One / I Can’t Quit You Baby
13. Little Girl
14. Pretending
15. Black Winter / Django
16. How Many More Times
17. Credits


Привет, гость
- Запомнить
Регистрация
Информация

Торрент трекер ExKinoRay.TV

Здесь вы можете скачать новые фильмы, сериалы, игры, музыку, софт и многое другое. Большая скорость скачивания на мультитрекерных раздачах. Всё абсолютно бесплатно.