Slayer: The Repentless Killogy | 2019 | HDRip - New-Team Одобрено администрацией

Участники
  • Раздают12
  • Качают2
  • Просмотров25
  • Скачали0
  • Комментариев0
  • Список файлов2
Залил раздачу
Поблагодарить
Характеристики
Вес2.13 GB (2,290,288,640)
Залит2019-11-14 01:47:31 Обновлено2019-11-14 01:50:31
Сетевая Да
   http://picplus.ru/img/1902/09/3dbacf35.png  http://s002.radikal.ru/i198/1306/cb/972fbdf9be7a.gif
Чтобы скачать, необходимо авторизоваться или зарегистрироваться.
Статус: Одобрено администрацией
Хотите видеть детали Раздачи пройдите авторизацию или регистрацию!

Спасибо за понимание...
General
Complete name : D:\Slayer\Slayer-The.Repentless.Killogy.2019.XviD.HDRip-Лумина.New-team\Slayer.The.Repentless.Killogy.2019.Concert.avi
Format : AVI
Format/Info : Audio Video Interleave
File size : 1.45 GiB
Duration : 1 h 30 min
Overall bit rate : 2 305 kb/s
Writing application : VirtualDubMod 1.5.10.3 | www.virtualdub-fr.org || (build 2550/release)
Writing library : VirtualDubMod build 2550/release

Video
ID : 0
Format : MPEG-4 Visual
Format profile : Advanced Simple@L5
Format settings : BVOP1 / Custom Matrix
Format settings, BVOP : 1
Format settings, QPel : No
Format settings, GMC : No warppoints
Format settings, Matrix : Custom
Codec ID : XVID
Codec ID/Hint : XviD
Duration : 1 h 30 min
Bit rate : 2 040 kb/s
Width : 720 pixels
Height : 400 pixels
Display aspect ratio : 16:9
Frame rate : 24.000 FPS
Color space : YUV
Chroma subsampling : 4:2:0
Bit depth : 8 bits
Scan type : Progressive
Compression mode : Lossy
Bits/(Pixel*Frame) : 0.295
Stream size : 1.28 GiB (88%)
Writing library : XviD 1.2.1 (UTC 2008-12-04)

Audio
ID : 1
Format : AC-3
Format/Info : Audio Coding 3
Codec ID : 2000
Duration : 1 h 30 min
Bit rate mode : Constant
Bit rate : 256 kb/s
Channel(s) : 2 channels
Channel positions : Front: L R
Sampling rate : 48.0 kHz
Frame rate : 31.250 FPS (1536 SPF)
Bit depth : 16 bits
Compression mode : Lossy
Stream size : 165 MiB (11%)
Alignment : Split accross interleaves
Interleave, duration : 42 ms (1.00 video frame)
Interleave, preload duratio : 500 ms
Service kind : Complete Main
https://a.radikal.ru/a34/1911/89/50c038de146dt.jpg https://a.radikal.ru/a21/1911/db/702bae030481t.jpg https://a.radikal.ru/a13/1911/b5/a0ae5e8a417dt.jpg https://c.radikal.ru/c10/1911/7f/80aa64cf3b77t.jpg https://a.radikal.ru/a37/1911/f1/8195ea2835b4t.jpg https://a.radikal.ru/a37/1911/46/3ad04bca78d0t.jpg
01. Delusions Of Saviour
02. Repentless
03. The Antichrist
04. Disciple
05. Postmortem
06. Hate Worldwide
07. War Ensemble
08. When The Stillness Comes
09. You Against You
10. Mandatory Suicide
11. Hallowed Point
12. Dead Skin Mask
13. Born Of Fire
14. Cast The First Stone
15. Bloodline
16. Seasons In The Abyss
17. Hell Awaits
18. South Of Heaven
19. Raining Blood
20. Chemical Warfare
21. Angel Of Death
Похожих раздач нет


Привет, гость
- Запомнить
Регистрация
Информация

Торрент трекер ExKinoRay.TV

Здесь вы можете скачать новые фильмы, сериалы, игры, музыку, софт и многое другое. Большая скорость скачивания на мультитрекерных раздачах. Всё абсолютно бесплатно.