Bananarama - Live in Hyde Park | 2019 | HDTVRip - New-Team Одобрено администрацией

Участники
  • Раздают5
  • Качают1
  • Просмотров24
  • Скачали3
  • Комментариев0
  • Список файлов1
Залил раздачу
Поблагодарить
Никто
Характеристики
Вес475.99 MB (499,111,936)
Залит2019-11-16 18:15:52 Обновлено2019-11-16 18:38:32
Сетевая Нет
   http://picplus.ru/img/1902/09/3dbacf35.png  http://s002.radikal.ru/i198/1306/cb/972fbdf9be7a.gif
Чтобы скачать, необходимо авторизоваться или зарегистрироваться.
Статус: Одобрено администрацией
Хотите видеть детали Раздачи пройдите авторизацию или регистрацию!

Спасибо за понимание...
General
Complete name               : D:\Celine Dion\Bananarama-Live.in.Hyde.Park.2019.XviD.HDTVRip-Лумина.New-team.avi
Format                      : AVI
Format/Info                 : Audio Video Interleave
File size                   : 476 MiB
Duration                    : 31 min 55 s
Overall bit rate            : 2 085 kb/s
Writing application         : VirtualDubMod 1.5.10.3 | www.virtualdub-fr.org || (build 2550/release)
Writing library             : VirtualDubMod build 2550/release

Video
ID                          : 0
Format                      : MPEG-4 Visual
Format profile              : Advanced Simple@L5
Format settings             : BVOP1 / Custom Matrix
Format settings, BVOP       : 1
Format settings, QPel       : No
Format settings, GMC        : No warppoints
Format settings, Matrix     : Custom
Codec ID                    : XVID
Codec ID/Hint               : XviD
Duration                    : 31 min 55 s
Bit rate                    : 1 947 kb/s
Width                       : 720 pixels
Height                      : 400 pixels
Display aspect ratio        : 16:9
Frame rate                  : 25.000 FPS
Color space                 : YUV
Chroma subsampling          : 4:2:0
Bit depth                   : 8 bits
Scan type                   : Progressive
Compression mode            : Lossy
Bits/(Pixel*Frame)          : 0.270
Stream size                 : 445 MiB (93%)
Writing library             : XviD 1.2.1 (UTC 2008-12-04)

Audio
ID                          : 1
Format                      : MPEG Audio
Format version              : Version 1
Format profile              : Layer 3
Format settings             : Joint stereo / MS Stereo
Codec ID                    : 55
Codec ID/Hint               : MP3
Duration                    : 31 min 55 s
Bit rate mode               : Constant
Bit rate                    : 128 kb/s
Channel(s)                  : 2 channels
Sampling rate               : 48.0 kHz
Frame rate                  : 41.667 FPS (1152 SPF)
Compression mode            : Lossy
Stream size                 : 29.2 MiB (6%)
Alignment                   : Aligned on interleaves
Interleave, duration        : 40  ms (1.00 video frame)
Interleave, preload duratio : 504  ms
Writing library             : LAME3.99r
Encoding settings           : -m j -V 4 -q 2 -lowpass 17 -b 128

https://d.radikal.ru/d43/1911/08/3eb36d844e19t.jpg
https://d.radikal.ru/d28/1911/2a/192736db3e82t.jpg
https://b.radikal.ru/b39/1911/31/5395bf7bb792t.jpg
https://c.radikal.ru/c39/1911/5a/6b693bf87888t.jpg
https://b.radikal.ru/b34/1911/34/937f6a428a7at.jpg
https://a.radikal.ru/a11/1911/64/2e5e4fd01e57t.jpg
15 september 2019

1. Stuff Like That
2. I Heard a Rumour
3. He Was Really Sayin' Somethin' (The Velvelettes cover)
4. Cruel Summer
5. Looking For Someone
6. Robert De Niro's Waiting
7. Love In The First Degree
8. Venus (Shocking Blue cover)


Привет, гость
- Запомнить
Регистрация
Информация

Торрент трекер ExKinoRay.TV

Здесь вы можете скачать новые фильмы, сериалы, игры, музыку, софт и многое другое. Большая скорость скачивания на мультитрекерных раздачах. Всё абсолютно бесплатно.