Pet Shop Boys - Discovery Live In Rio | 1994 | LDRip - New-Team Одобрено администрацией

Участники
  • Раздают7
  • Качают3
  • Просмотров153
  • Скачали2
  • Комментариев0
  • Список файлов1
Залил раздачу
Поблагодарить
Характеристики
Вес1.45 GB (1,557,821,440)
Залит2019-11-16 21:23:33 Обновлено2019-11-16 21:23:58
Сетевая Нет
   http://picplus.ru/img/1902/09/3dbacf35.png  http://s002.radikal.ru/i198/1306/cb/972fbdf9be7a.gif
Чтобы скачать, необходимо авторизоваться или зарегистрироваться.
Статус: Одобрено администрацией
Хотите видеть детали Раздачи пройдите авторизацию или регистрацию!

Спасибо за понимание...
General
Complete name               : D:\Burito\Pet.Shop.Boys-Discovery.Live.In Rio.1994.XviD.LD Rip.Лумина.New-team.avi
Format                      : AVI
Format/Info                 : Audio Video Interleave
File size                   : 1.45 GiB
Duration                    : 1 h 36 min
Overall bit rate            : 2 159 kb/s
Writing application         : VirtualDubMod 1.5.10.3 | www.virtualdub-fr.org || (build 2550/release)
Writing library             : VirtualDubMod build 2550/release

Video
ID                          : 0
Format                      : MPEG-4 Visual
Format profile              : Advanced Simple@L5
Format settings             : BVOP1 / Custom Matrix
Format settings, BVOP       : 1
Format settings, QPel       : No
Format settings, GMC        : No warppoints
Format settings, Matrix     : Custom
Codec ID                    : XVID
Codec ID/Hint               : XviD
Duration                    : 1 h 36 min
Bit rate                    : 1 894 kb/s
Width                       : 688 pixels
Height                      : 512 pixels
Display aspect ratio        : 4:3
Frame rate                  : 23.976 (24000/1001) FPS
Original frame rate         : 23.976 (23976/1000) FPS
Color space                 : YUV
Chroma subsampling          : 4:2:0
Bit depth                   : 8 bits
Scan type                   : Progressive
Compression mode            : Lossy
Bits/(Pixel*Frame)          : 0.224
Stream size                 : 1.27 GiB (88%)
Writing library             : XviD 1.2.1 (UTC 2008-12-04)

Audio
ID                          : 1
Format                      : AC-3
Format/Info                 : Audio Coding 3
Codec ID                    : 2000
Duration                    : 1 h 36 min
Bit rate mode               : Constant
Bit rate                    : 256 kb/s
Channel(s)                  : 2 channels
Channel positions           : Front: L R
Sampling rate               : 48.0 kHz
Frame rate                  : 31.250 FPS (1536 SPF)
Bit depth                   : 16 bits
Compression mode            : Lossy
Stream size                 : 176 MiB (12%)
Alignment                   : Split accross interleaves
Interleave, duration        : 42  ms (1.00 video frame)
Interleave, preload duratio : 500  ms
Service kind                : Complete Main

https://d.radikal.ru/d38/1911/3a/fd2ba83db459t.jpg
https://d.radikal.ru/d11/1911/25/73fa4b1b9385t.jpg
https://a.radikal.ru/a15/1911/32/dc708b1c14ebt.jpg
https://d.radikal.ru/d01/1911/85/3086aa15f7c9t.jpg
https://c.radikal.ru/c36/1911/8f/43c95ad2c3f2t.jpg
https://b.radikal.ru/b09/1911/8d/62b371668531t.jpg
01. Tonight Is Forever
02. I Wouldn't Normally Do This Kind Of Thing
03. Always On My Mind
04. Domino Dancing
05. To Speak Is A Sin
06. One In A Million / Mr. Vain
07. Paninario
08. Rent
09. Suburbia
10. King's Cross
11. So Hard
12. Left To My Own Devices / Rhythm Of The Night
13. Absolutely Fabulous
14. Liberation
15. West End Girls
16. Can You Forgive Her?
17. Girls And Boys
18. It's A Sin / I Will Survive
19. Go West
20. Go West (Reprise)
21. Being Boring


Привет, гость
- Запомнить
Регистрация
Информация

Торрент трекер ExKinoRay.TV

Здесь вы можете скачать новые фильмы, сериалы, игры, музыку, софт и многое другое. Большая скорость скачивания на мультитрекерных раздачах. Всё абсолютно бесплатно.