Дмитрий Маликов - Pianomaniя в Оперетте | 2007 | DVDRip - New-Team Одобрено администрацией

Участники
  • Раздают4
  • Качают1
  • Просмотров116
  • Скачали0
  • Комментариев0
  • Список файлов1
Залил раздачу
Поблагодарить
Никто
Характеристики
Вес1.45 GB (1,554,931,712)
Залит2019-11-28 23:20:46 Обновлено2019-11-28 23:21:29
Сетевая Нет
   http://picplus.ru/img/1902/09/3dbacf35.png  http://s002.radikal.ru/i198/1306/cb/972fbdf9be7a.gif
Чтобы скачать, необходимо авторизоваться или зарегистрироваться.
Статус: Одобрено администрацией
Хотите видеть детали Раздачи пройдите авторизацию или регистрацию!

Спасибо за понимание...
General
Complete name               : D:\King Crimson\D.Malikov-Pianomaniя.v.Operette.2007.XviD.DVDRip-Лумина.New-team.avi
Format                      : AVI
Format/Info                 : Audio Video Interleave
File size                   : 1.45 GiB
Duration                    : 1 h 24 min
Overall bit rate            : 2 452 kb/s
Writing application         : VirtualDubMod 1.5.10.3 | www.virtualdub-fr.org || (build 2550/release)
Writing library             : VirtualDubMod build 2550/release

Video
ID                          : 0
Format                      : MPEG-4 Visual
Format profile              : Advanced Simple@L5
Format settings             : BVOP1 / Custom Matrix
Format settings, BVOP       : 1
Format settings, QPel       : No
Format settings, GMC        : No warppoints
Format settings, Matrix     : Custom
Codec ID                    : XVID
Codec ID/Hint               : XviD
Duration                    : 1 h 24 min
Bit rate                    : 2 186 kb/s
Width                       : 720 pixels
Height                      : 432 pixels
Display aspect ratio        : 5:3
Frame rate                  : 25.000 FPS
Color space                 : YUV
Chroma subsampling          : 4:2:0
Bit depth                   : 8 bits
Scan type                   : Progressive
Compression mode            : Lossy
Bits/(Pixel*Frame)          : 0.281
Stream size                 : 1.29 GiB (89%)
Writing library             : XviD 1.2.1 (UTC 2008-12-04)

Audio
ID                          : 1
Format                      : AC-3
Format/Info                 : Audio Coding 3
Codec ID                    : 2000
Duration                    : 1 h 24 min
Bit rate mode               : Constant
Bit rate                    : 256 kb/s
Channel(s)                  : 2 channels
Channel positions           : Front: L R
Sampling rate               : 48.0 kHz
Frame rate                  : 31.250 FPS (1536 SPF)
Bit depth                   : 16 bits
Compression mode            : Lossy
Stream size                 : 155 MiB (10%)
Alignment                   : Split accross interleaves
Interleave, duration        : 40  ms (1.00 video frame)
Interleave, preload duratio : 500  ms
Service kind                : Complete Main

https://d.radikal.ru/d16/1911/49/6b31d7df019ft.jpg https://c.radikal.ru/c21/1911/e2/2c3d204e7608t.jpg https://b.radikal.ru/b06/1911/9e/9a19ba52ff8et.jpg https://b.radikal.ru/b32/1911/f1/e3cd7e03e191t.jpg https://b.radikal.ru/b30/1911/e5/f7a1b22da789t.jpg https://a.radikal.ru/a02/1911/b4/f007c98066e8t.jpg
01. Увертюра
02. Весна
03. Лола
04. Ласточки
05. Дельфины
06. Импровизация
07. Иди ко мне
08. Ночь в Мадриде
09. Земля обетованная
10. Дыши
11. Барабаны судьбы
12. Одиссей
13. Алтай
14. Стефания
15. На Тихорецкую
16. Еще, еще
17. Увезу тебя я в тундру
18. Кто стрелял в джаз
19. Этюд
20. Танец рыцарей
21. До завтра
22. Второе дыхание


Привет, гость
- Запомнить
Регистрация
Информация

Торрент трекер ExKinoRay.TV

Здесь вы можете скачать новые фильмы, сериалы, игры, музыку, софт и многое другое. Большая скорость скачивания на мультитрекерных раздачах. Всё абсолютно бесплатно.