Я видел Дьявола | I Saw The Devil | 2010 | BDRip 720p - KORSAR | International Cut Одобрено администрацией

Участники
  • Раздают2
  • Качают0
  • Просмотров27
  • Скачали2
  • Комментариев0
  • Список файлов1
Залил раздачу
Поблагодарить
Характеристики
Вес7.05 GB (7,570,747,671)
Залит2020-02-28 22:51:06 Обновлено2020-02-29 06:47:58
Сетевая Нет
Чтобы скачать, необходимо авторизоваться или зарегистрироваться.
Статус: Одобрено администрацией
Хотите видеть детали Раздачи пройдите авторизацию или регистрацию!

Спасибо за понимание...
Просьба отключить блокировщики рекламы на странице скриншотов по адресу: http://3.lostpic.net/, этим Вы поможете существованию проекта. Заранее спасибо!
[*]x264 [info]: frame I:1251  Avg QP:15.49  size:183877
[*]x264 [info]: frame P:43359 Avg QP:17.31  size: 70990
[*]x264 [info]: frame B:159937 Avg QP:19.97  size: 20664
[*]x264 [info]: consecutive B-frames:  1.8%  2.3%  7.3% 16.8% 21.3% 40.1%  5.6%  2.0%  1.1%  0.6%  0.9%  0.4%[/list]Общее
Уникальный идентификатор                 : 201497351761290103548867987480370550478 (0x9796FA74F5F4D673885CE9986B6916CE)
Полное имя                               : D:\Я видел дьявола_2010-BDRip 720p_KORSAR_ International Cut.mkv
Формат                                   : Matroska
Версия формата                           : Version 2
Размер файла                             : 7,05 Гбайт
Продолжительность                        : 2 ч. 22 м.
Общий поток                              : 7099 Кбит/сек
Название фильма                          : Я видел дьявола_2010-BDRip 720p_KORSAR
Дата кодирования                         : UTC 2020-02-20 13:18:27
Программа кодирования                    : mkvmerge v5.8.0 ('No Sleep / Pillow') built on Sep  2 2012 15:37:04
Библиотека кодирования                   : libebml v1.2.3 + libmatroska v1.3.0

Видео
Идентификатор                            : 1
Формат                                   : AVC
Формат/Информация                        : Advanced Video Codec
Профиль формата                          : High@L4.1
Настройки формата                        : CABAC / 9 Ref Frames
Параметр CABAC формата                   : Да
Параметр RefFrames формата               : 9 кадров
Идентификатор кодека                     : V_MPEG4/ISO/AVC
Продолжительность                        : 2 ч. 22 м.
Битрейт                                  : 6062 Кбит/сек
Ширина                                   : 1280 пикселей
Высота                                   : 692 пикселя
Соотношение сторон                       : 1,85:1
Режим частоты кадров                     : Постоянный
Частота кадров                           : 23,976 (24000/1001) кадра/сек
Цветовое пространство                    : YUV
Субдискретизация насыщенности            : 4:2:0
Битовая глубина                          : 8 бит
Тип развёртки                            : Прогрессивная
Бит/(Пиксели*Кадры)                      : 0.285
Размер потока                            : 6,02 Гбайт (85%)
Библиотека кодирования                   : x264 core 152 r2851kMod ba24899
Настройки программы                      : cabac=1 / ref=9 / deblock=1:-3:-2 / analyse=0x3:0x113 / me=umh / subme=10 / psy=1 / fade_compensate=0.00 / psy_rd=1.05:0.10 / mixed_ref=1 / me_range=48 / chroma_me=1 / trellis=2 / 8x8dct=1 / cqm=0 / deadzone=21,11 / fast_pskip=1 / chroma_qp_offset=-3 / threads=4 / lookahead_threads=1 / sliced_threads=0 / nr=0 / decimate=1 / interlaced=0 / bluray_compat=0 / constrained_intra=0 / bframes=11 / b_pyramid=2 / b_adapt=2 / b_bias=0 / direct=1 / weightb=1 / open_gop=0 / weightp=2 / keyint=240 / keyint_min=23 / scenecut=40 / intra_refresh=0 / rc_lookahead=40 / rc=crf / mbtree=0 / crf=17.7000 / qcomp=0.63 / qpmin=0 / qpmax=33 / qpstep=4 / vbv_maxrate=50000 / vbv_bufsize=62500 / crf_max=0.0 / nal_hrd=none / filler=0 / ip_ratio=1.40 / pb_ratio=1.30 / aq=2:0.90
Язык                                     : English
Default                                  : Да
Forced                                   : Нет
Цветовой диапазон                        : Limited
Основные цвета                           : BT.709
Характеристики трансфера                 : BT.709
Коэффициенты матрицы                     : BT.709

Аудио #1
Идентификатор                            : 2
Формат                                   : AC-3
Формат/Информация                        : Audio Coding 3
Коммерческое название                    : Dolby Digital
Идентификатор кодека                     : A_AC3
Продолжительность                        : 2 ч. 22 м.
Вид битрейта                             : Постоянный
Битрейт                                  : 448 Кбит/сек
Каналы                                   : 6 каналов
ChannelLayout                            : L R C LFE Ls Rs
Частота                                  : 48,0 КГц
Частота кадров                           : 31,250 кадров/сек (1536 SPF)
Метод сжатия                             : С потерями
Размер потока                            : 456 Мбайт (6%)
Заголовок                                : AVO-Сербин
Язык                                     : Russian
ServiceKind/String                       : Complete Main
Default                                  : Да
Forced                                   : Нет

Аудио #2
Идентификатор                            : 3
Формат                                   : AC-3
Формат/Информация                        : Audio Coding 3
Коммерческое название                    : Dolby Digital
Идентификатор кодека                     : A_AC3
Продолжительность                        : 2 ч. 22 м.
Вид битрейта                             : Постоянный
Битрейт                                  : 448 Кбит/сек
Каналы                                   : 6 каналов
ChannelLayout                            : L R C LFE Ls Rs
Частота                                  : 48,0 КГц
Частота кадров                           : 31,250 кадров/сек (1536 SPF)
Метод сжатия                             : С потерями
Размер потока                            : 456 Мбайт (6%)
Заголовок                                : AVO-Есарёв
Язык                                     : Russian
ServiceKind/String                       : Complete Main
Default                                  : Нет
Forced                                   : Нет

Текст
Идентификатор                            : 4
Формат                                   : UTF-8
Идентификатор кодека                     : S_TEXT/UTF8
Идентификатор кодека/Информация          : UTF-8 Plain Text
Язык                                     : English
Default                                  : Нет
Forced                                   : Нет

Меню
00:00:00.000                             : en:Chapter 1
00:09:44.165                             : en:Chapter 2
00:14:13.394                             : en:Chapter 3
00:19:52.523                             : en:Chapter 4
00:23:27.405                             : en:Chapter 5
00:36:21.762                             : en:Chapter 6
00:45:24.930                             : en:Chapter 7
00:56:03.109                             : en:Chapter 8
01:02:09.559                             : en:Chapter 9
01:13:04.546                             : en:Chapter 10
01:17:05.787                             : en:Chapter 11
01:27:45.260                             : en:Chapter 12
01:40:43.287                             : en:Chapter 13
01:49:49.291                             : en:Chapter 14
02:06:36.004                             : en:Chapter 15
02:19:35.075                             : en:Chapter 16
https://img10.lostpic.net/2020/02/20/49c03a52d747b3464e63a52e5461d2ca.th.png https://img10.lostpic.net/2020/02/20/634ef1ff6c4d9d224e09b1bd62c69948.th.png https://img10.lostpic.net/2020/02/20/c057e2346de31163450dc436a7fed403.th.png https://img10.lostpic.net/2020/02/20/f9da9b487825306a15c0926d429e0675.th.png
http://korsar.tv/images/Banner-Korsar.gif http://korsar.tv/img/VKontakte.png  
Похожих раздач нет


Привет, гость
- Запомнить
Регистрация
Информация

Торрент трекер ExKinoRay.TV

Здесь вы можете скачать новые фильмы, сериалы, игры, музыку, софт и многое другое. Большая скорость скачивания на мультитрекерных раздачах. Всё абсолютно бесплатно.