Охотники / Hunters / Сезон: 01 / Серии: 01-02 из 10 (2020, драма, WEB-DL 1080p) | LostFilm без модерации

Участники
  • Раздают6
  • Качают5
  • Просмотров7
  • Скачали0
  • Комментариев0
  • Список файлов2
Залил раздачу
Поблагодарить
Никто
Характеристики
Вес8.63 GB (9,268,508,430)
Залит2020-03-03 03:45:41 Обновлено2020-03-03 04:09:18
Сетевая Нет
   [img]http://korsar.tv/images/Banner-Korsar.gif[/url] http://korsar.tv/img/VKontakte.png[/url][/img]
Чтобы скачать, необходимо авторизоваться или зарегистрироваться.
Статус: Без модерации
Хотите видеть детали Раздачи пройдите авторизацию или регистрацию!

Спасибо за понимание...
General
Unique ID                                : 90983561344395141976241995422482012468 (0x4472CBE8FF78BE6291B3625330AF9934)
Complete name                            : Hunters.S01E01.1080p.WEB-DL.RUS.LF.EniaHD.mkv
Format                                   : Matroska
Format version                           : Version 4
File size                                : 5.09 GiB
Duration                                 : 1 h 30 min
Overall bit rate                         : 8 077 kb/s
Movie name                               : Hunters, Season 1 / In the Belly of the Whale
Track name/Position                      : 1
Track name/Total                         : 10
Description                              : In the beginning, a plague crossed over the House of Heidelbaum. Its youngest, Jonah, was plunged into the belly of the whale; but was culled from the darkness by the shepherd Meyer Offerman. Somewhere across the ancient land of Manhattan, Millie Morris, a guardian of the law, whose faith hath been tested, trekked South upon the death of an elderly woman.
Released date                            : 2020-02-21T12:00:00
Writing application                      : mkvmerge v42.0.0 ('Overtime') 64-bit
Writing library                          : libebml v1.3.10 + libmatroska v1.5.2
Cover                                    : Yes
Attachments                              : small_cover.jpg / cover.jpg

Video
ID                                       : 1
Format                                   : AVC
Format/Info                              : Advanced Video Codec
Format profile                           : High@L4.1
Format settings                          : CABAC / 4 Ref Frames
Format settings, CABAC                   : Yes
Format settings, ReFrames                : 4 frames
Codec ID                                 : V_MPEG4/ISO/AVC
Duration                                 : 1 h 30 min
Bit rate                                 : 6 794 kb/s
Width                                    : 1 920 pixels
Height                                   : 1 080 pixels
Display aspect ratio                     : 16:9
Frame rate mode                          : Constant
Frame rate                               : 23.976 (24000/1001) FPS
Color space                              : YUV
Chroma subsampling                       : 4:2:0
Bit depth                                : 8 bits
Scan type                                : Progressive
Bits/(Pixel*Frame)                       : 0.137
Stream size                              : 4.28 GiB (84%)
Language                                 : English
Default                                  : Yes
Forced                                   : No
Color range                              : Limited
Color primaries                          : BT.709
Transfer characteristics                 : BT.709
Matrix coefficients                      : BT.709

Audio #1
ID                                       : 2
Format                                   : E-AC-3
Format/Info                              : Enhanced AC-3
Commercial name                          : Dolby Digital Plus
Codec ID                                 : A_EAC3
Duration                                 : 1 h 30 min
Bit rate mode                            : Constant
Bit rate                                 : 640 kb/s
Channel(s)                               : 6 channels
Channel layout                           : L R C LFE Ls Rs
Sampling rate                            : 48.0 kHz
Frame rate                               : 31.250 FPS (1536 SPF)
Compression mode                         : Lossy
Stream size                              : 413 MiB (8%)
Title                                    : E-AC3 5.1 @ 640kbps - MVO, Lostfilm
Language                                 : Russian
Service kind                             : Complete Main
Default                                  : Yes
Forced                                   : No
Released date                            : 2020-02-24T21:18:23Z

Audio #2
ID                                       : 3
Format                                   : E-AC-3
Format/Info                              : Enhanced AC-3
Commercial name                          : Dolby Digital Plus
Codec ID                                 : A_EAC3
Duration                                 : 1 h 30 min
Bit rate mode                            : Constant
Bit rate                                 : 640 kb/s
Channel(s)                               : 6 channels
Channel layout                           : L R C LFE Ls Rs
Sampling rate                            : 48.0 kHz
Frame rate                               : 31.250 FPS (1536 SPF)
Compression mode                         : Lossy
Stream size                              : 413 MiB (8%)
Title                                    : E-AC3 5.1 @ 640kbps - Original
Language                                 : English
Service kind                             : Complete Main
Default                                  : No
Forced                                   : No

Text #1
ID                                       : 4
Format                                   : UTF-8
Codec ID                                 : S_TEXT/UTF8
Codec ID/Info                            : UTF-8 Plain Text
Duration                                 : 1 h 27 min
Bit rate                                 : 93 b/s
Count of elements                        : 1129
Stream size                              : 60.5 KiB (0%)
Title                                    : Amazon
Language                                 : Russian
Default                                  : No
Forced                                   : No

Text #2
ID                                       : 5
Format                                   : UTF-8
Codec ID                                 : S_TEXT/UTF8
Codec ID/Info                            : UTF-8 Plain Text
Duration                                 : 1 h 29 min
Bit rate                                 : 64 b/s
Count of elements                        : 1454
Stream size                              : 42.4 KiB (0%)
Title                                    : SDH
Language                                 : English
Default                                  : No
Forced                                   : No

Text #3
ID                                       : 6
Format                                   : UTF-8
Codec ID                                 : S_TEXT/UTF8
Codec ID/Info                            : UTF-8 Plain Text
Duration                                 : 50 min 0 s
Bit rate                                 : 0 b/s
Count of elements                        : 8
Stream size                              : 131 Bytes (0%)
Language                                 : English
Default                                  : No
Forced                                   : No

Menu
00:00:00.000                             : en:Amazon Original
00:00:05.000                             : en:Ratings
00:00:15.000                             : en:30 years of work wasted
00:04:58.000                             : en:Opening Credits
00:06:04.000                             : en:It's rough on the streets of Brooklyn
00:10:41.000                             : en:Advice from a wise Safta
00:15:15.000                             : en:An intruder in the home
00:17:55.000                             : en:A new assignment
00:21:24.000                             : en:Grandmother's memorial and sitting Shiva
00:23:15.000                             : en:A debt is owed
00:27:32.000                             : en:A glimpse into the past
00:31:46.000                             : enlumbing issues
00:34:37.000                             : en:FBI Headquarters
00:37:14.000                             : en:Jonah needs answers
00:39:28.000                             : en:Investigating Gretel's death
00:41:42.000                             : en:Jonah visits the Hell's Devils
00:43:28.000                             : en:A purposeful kill
00:44:15.000                             : en:A visit to the Congressman
00:47:47.000                             : enetective work
00:49:45.000                             : en:A deadly game of chess
00:56:23.000                             : en:Jonah stumbles across something
01:01:44.000                             : en:An interview at NASA
01:05:11.000                             : en:Jonah follows a hunch
01:08:27.000                             : en:Only the dead know the end of war
01:14:53.000                             : en:Millie searches for the truth
01:17:02.000                             : enoing laundry
01:17:57.000                             : en:This is not murder, this is mitzvah
01:24:54.000                             : en:Someone to watch over you
01:26:26.000                             : en:Title Sequence
01:26:33.000                             : en:A meeting with The Colonel
01:29:01.000                             : en:End Credits
https://i2.imageban.ru/out/2019/11/02/015aa9ec70d7b1b2b6a1b34fa15498ce.jpg[/url]https://img10.lostpic.net/2020/02/25/bba76d8d45151c8cbc229e0f3ae8bddf.th.png[/url]https://img10.lostpic.net/2020/02/25/01b2d7be85fa26014b3e39aa57e9a130.th.png[/url]https://img10.lostpic.net/2020/02/25/abbb5d24bfed4cd93003cdf3ac74da81.th.png[/url]https://img10.lostpic.net/2020/02/25/a78d46b340b5a67e717fec3ef01d59dd.th.png[/url]
spisok
track
     


Привет, гость
- Запомнить
Регистрация
Информация

Торрент трекер ExKinoRay.TV

Здесь вы можете скачать новые фильмы, сериалы, игры, музыку, софт и многое другое. Большая скорость скачивания на мультитрекерных раздачах. Всё абсолютно бесплатно.