Дискотека 80-х от Авторадио (2018, концерт, диско, HDTV 720p) | Полная версия без модерации

Участники
  • Раздают3
  • Качают1
  • Просмотров8
  • Скачали0
  • Комментариев0
  • Список файлов1
Залил раздачу
Поблагодарить
Никто
Характеристики
Вес12.36 GB (13,272,927,989)
Залит2020-03-15 20:44:04 Обновлено2020-03-15 21:06:44
Сетевая Нет
Чтобы скачать, необходимо авторизоваться или зарегистрироваться.
Статус: Без модерации
Хотите видеть детали Раздачи пройдите авторизацию или регистрацию!

Спасибо за понимание...
Общее
Полное имя                               : D:\Дискотека 80-х 2018 (HDTVRIp 720p).mp4
Формат                                   : MPEG-4
Профиль формата                          : JVT
Идентификатор кодека                     : avc1 (avc1/mp42)
Размер файла                             : 12,4 Гбайт
Продолжительность                        : 3 ч. 35 м.
Режим общего битрейта                    : Переменный
Общий поток                              : 8204 Кбит/сек


Видео
Идентификатор                            : 1
Формат                                   : AVC
Формат/Информация                        : Advanced Video Codec
Профиль формата                          : High@L3.1
Настройки формата                        : CABAC / 2 Ref Frames
Параметр CABAC формата                   : Да
Параметр RefFrames формата               : 2 кадра
Параметр GOP формата                     : M=3, N=30
Идентификатор кодека                     : avc1
Идентификатор кодека/Информация          : Advanced Video Coding
Продолжительность                        : 3 ч. 35 м.
Вид битрейта                             : Переменный
Битрейт                                  : 8000 Кбит/сек
Максимальный битрейт                     : 11,0 Мбит/сек
Ширина                                   : 1280 пикселей
Высота                                   : 720 пикселей
Соотношение сторон                       : 16:9
Режим частоты кадров                     : Постоянный
Частота кадров                           : 25,000 кадров/сек
Цветовое пространство                    : YUV
Субдискретизация насыщенности            : 4:2:0
Битовая глубина                          : 8 бит
Тип развёртки                            : Прогрессивная
Бит/(Пиксели*Кадры)                      : 0.347
Размер потока                            : 12,1 Гбайт (98%)


Аудио
Идентификатор                            : 2
Формат                                   : AAC
Формат/Информация                        : Advanced Audio Codec
Профиль формата                          : LC
Идентификатор кодека                     : mp4a-40-2
Продолжительность                        : 3 ч. 35 м.
Продолжительность оригинала              : 3 ч. 35 м.
Вид битрейта                             : Постоянный
Битрейт                                  : 192 Кбит/сек
Каналы                                   : 2 канала
Расположение каналов                     : Front: L R
Частота                                  : 48,0 КГц
Частота кадров                           : 46,875 кадров/сек (1024 SPF)
Метод сжатия                             : С потерями
Размер потока                            : 296 Мбайт (2%)
Размер потока оригинала                  : 296 Мбайт (2%)


Привет, гость
- Запомнить
Регистрация
Информация

Торрент трекер ExKinoRay.TV

Здесь вы можете скачать новые фильмы, сериалы, игры, музыку, софт и многое другое. Большая скорость скачивания на мультитрекерных раздачах. Всё абсолютно бесплатно.