Пластилиновая ворона,  Падал прошлогодний снег | 1981-1983 | WEBRip (AVC) - KORSAR Одобрено администрацией

Участники
  • Раздают7
  • Качают0
  • Просмотров40
  • Скачали2
  • Комментариев0
  • Список файлов2
Залил раздачу
Поблагодарить
Характеристики
Вес781.64 MB (819,612,834)
Залит2020-03-16 12:33:45 Обновлено2020-03-16 12:40:02
Сетевая Нет
Чтобы скачать, необходимо авторизоваться или зарегистрироваться.
Статус: Одобрено администрацией
Хотите видеть детали Раздачи пройдите авторизацию или регистрацию!

Спасибо за понимание...
Просьба отключить блокировщики рекламы на странице скриншотов по адресу: http://3.lostpic.net/, этим Вы поможете существованию проекта. Заранее спасибо!
x264 [info]: frame I:67    Avg QP:16.72  size:108863x264 [info]: frame P:3437  Avg QP:18.67  size: 38751x264 [info]: frame B:9863  Avg QP:21.12  size:  5626x264 [info]: consecutive B-frames:  3.2%  6.0% 16.0% 21.0% 22.3% 23.4%  3.9%  2.9%  1.0%  0.3%Общее
Уникальный идентификатор                 : 203031264235274615888634101527446045413 (0x98BE662E48EE13A5907A8D38863442E5)
Полное имя                               : D:\Пластилиновая ворона, Падал прошлогодний снег_1981-1983-WEBRip-AVC_KORSAR\Пластилиновая ворона_1981.mkv
Формат                                   : Matroska
Версия формата                           : Version 2
Размер файла                             : 236 Мбайт
Продолжительность                        : 8 м. 54 с.
Общий поток                              : 3702 Кбит/сек
Дата кодирования                         : UTC 2020-03-02 17:42:51
Программа кодирования                    : mkvmerge v5.8.0 ('No Sleep / Pillow') built on Sep  2 2012 15:37:04
Библиотека кодирования                   : libebml v1.2.3 + libmatroska v1.3.0

Видео
Идентификатор                            : 1
Формат                                   : AVC
Формат/Информация                        : Advanced Video Codec
Профиль формата                          : High@L4.1
Настройки формата                        : CABAC / 14 Ref Frames
Параметр CABAC формата                   : Да
Параметр RefFrames формата               : 14 кадров
Идентификатор кодека                     : V_MPEG4/ISO/AVC
Продолжительность                        : 8 м. 54 с.
Битрейт                                  : 2861 Кбит/сек
Ширина                                   : 886 пикселей
Высота                                   : 648 пикселей
Соотношение сторон                       : 4:3
Режим частоты кадров                     : Постоянный
Частота кадров                           : 25,000 кадров/сек
Цветовое пространство                    : YUV
Субдискретизация насыщенности            : 4:2:0
Битовая глубина                          : 8 бит
Тип развёртки                            : Прогрессивная
Бит/(Пиксели*Кадры)                      : 0.199
Размер потока                            : 182 Мбайт (77%)
Библиотека кодирования                   : x264 core 152 r2851kMod ba24899
Настройки программы                      : cabac=1 / ref=14 / deblock=1:-1:-1 / analyse=0x3:0x113 / me=umh / subme=10 / psy=1 / fade_compensate=0.00 / psy_rd=1.05:0.10 / mixed_ref=1 / me_range=40 / chroma_me=1 / trellis=2 / 8x8dct=1 / cqm=0 / deadzone=21,11 / fast_pskip=1 / chroma_qp_offset=-3 / threads=4 / lookahead_threads=1 / sliced_threads=0 / nr=0 / decimate=1 / interlaced=0 / bluray_compat=0 / constrained_intra=0 / bframes=9 / b_pyramid=2 / b_adapt=2 / b_bias=0 / direct=1 / weightb=1 / open_gop=0 / weightp=2 / keyint=250 / keyint_min=25 / scenecut=40 / intra_refresh=0 / rc_lookahead=40 / rc=crf / mbtree=0 / crf=17.0000 / qcomp=0.63 / qpmin=0 / qpmax=33 / qpstep=4 / vbv_maxrate=50000 / vbv_bufsize=62500 / crf_max=0.0 / nal_hrd=none / filler=0 / ip_ratio=1.40 / pb_ratio=1.30 / aq=2:0.80
Язык                                     : English
Default                                  : Да
Forced                                   : Нет
Цветовой диапазон                        : Limited
Основные цвета                           : BT.709
Характеристики трансфера                 : BT.709
Коэффициенты матрицы                     : BT.709

Аудио #1
Идентификатор                            : 2
Формат                                   : AC-3
Формат/Информация                        : Audio Coding 3
Коммерческое название                    : Dolby Digital
Идентификатор кодека                     : A_AC3
Продолжительность                        : 8 м. 54 с.
Вид битрейта                             : Постоянный
Битрейт                                  : 384 Кбит/сек
Каналы                                   : 6 каналов
ChannelLayout                            : L R C LFE Ls Rs
Частота                                  : 48,0 КГц
Частота кадров                           : 31,250 кадров/сек (1536 SPF)
Метод сжатия                             : С потерями
Размер потока                            : 24,5 Мбайт (10%)
Язык                                     : Russian
ServiceKind/String                       : Complete Main
Default                                  : Да
Forced                                   : Нет

Аудио #2
Идентификатор                            : 3
Формат                                   : AC-3
Формат/Информация                        : Audio Coding 3
Коммерческое название                    : Dolby Digital
Идентификатор кодека                     : A_AC3
Продолжительность                        : 8 м. 54 с.
Вид битрейта                             : Постоянный
Битрейт                                  : 384 Кбит/сек
Каналы                                   : 2 канала
ChannelLayout                            : L R
Частота                                  : 48,0 КГц
Частота кадров                           : 31,250 кадров/сек (1536 SPF)
Метод сжатия                             : С потерями
Размер потока                            : 24,5 Мбайт (10%)
Язык                                     : Russian
ServiceKind/String                       : Complete Main
Default                                  : Нет
Forced                                   : Нет

  https://img10.lostpic.net/2020/03/02/ba6b3c0424bd8b816b8d1c11885f522d.th.png https://img10.lostpic.net/2020/03/02/18684560cbdad023ee855fe03e4170a6.th.png https://img10.lostpic.net/2020/03/02/180e483fb59077ab740cfe18a95ef329.th.png https://img10.lostpic.net/2020/03/02/c4fd77f372f4044138f2048c51e68d76.th.png
http://korsar.tv/images/Banner-Korsar.gif http://korsar.tv/img/VKontakte.png  


Привет, гость
- Запомнить
Регистрация
Информация

Торрент трекер ExKinoRay.TV

Здесь вы можете скачать новые фильмы, сериалы, игры, музыку, софт и многое другое. Большая скорость скачивания на мультитрекерных раздачах. Всё абсолютно бесплатно.