Свой человек | The Insider | 1999 | BDRip (720p) - KORSAR Одобрено администрацией

Участники
  • Раздают1
  • Качают0
  • Просмотров14
  • Скачали2
  • Комментариев0
  • Список файлов1
Залил раздачу
Поблагодарить
Никто
Характеристики
Вес13.29 GB (14,273,535,794)
Залит2020-03-20 21:00:57 Обновлено2020-03-20 21:06:23
Сетевая Нет
Чтобы скачать, необходимо авторизоваться или зарегистрироваться.
Статус: Одобрено администрацией
Хотите видеть детали Раздачи пройдите авторизацию или регистрацию!

Спасибо за понимание...
Просьба отключить блокировщики рекламы на странице скриншотов по адресу: http://3.lostpic.net/, этим Вы поможете существованию проекта. Заранее спасибо!


[*]x264 [info]: frame I:1424  Avg QP:14.81  size:201773
[*]x264 [info]: frame P:45521 Avg QP:17.82  size: 87325
[*]x264 [info]: frame B:180034 Avg QP:20.08  size: 38759
[*]x264 [info]: consecutive B-frames:  1.5%  2.8%  7.0% 10.5% 14.3% 48.8%  6.6%  1.5%  2.2%  1.7%  1.0%  0.4%  0.6%  0.7%  0.3%[/list]Общее
Уникальный идентификатор                 : 222031999000151419145749433760548838488 (0xA709CEBB82367AA8A40AB005BEB6DC58)
Полное имя                               : D:\Свой человек_1999-BDRip 720p_KORSAR.mkv
Формат                                   : Matroska
Версия формата                           : Version 2
Размер файла                             : 13,3 Гбайт
Продолжительность                        : 2 ч. 37 м.
Общий поток                              : 12,1 Мбит/сек
Название фильма                          : Свой человек_1999-BDRip 720p_KORSAR
Дата кодирования                         : UTC 2020-02-25 16:23:38
Программа кодирования                    : mkvmerge v5.8.0 ('No Sleep / Pillow') built on Sep  2 2012 15:37:04
Библиотека кодирования                   : libebml v1.2.3 + libmatroska v1.3.0
Attachments                              : 40899_poster_262667.jpg

Видео
Идентификатор                            : 1
Формат                                   : AVC
Формат/Информация                        : Advanced Video Codec
Профиль формата                          : High@L4.1
Настройки формата                        : CABAC / 12 Ref Frames
Параметр CABAC формата                   : Да
Параметр RefFrames формата               : 12 кадров
Идентификатор кодека                     : V_MPEG4/ISO/AVC
Продолжительность                        : 2 ч. 37 м.
Битрейт                                  : 9500 Кбит/сек
Ширина                                   : 1280 пикселей
Высота                                   : 536 пикселей
Соотношение сторон                       : 2,40:1
Режим частоты кадров                     : Постоянный
Частота кадров                           : 23,976 (24000/1001) кадра/сек
Цветовое пространство                    : YUV
Субдискретизация насыщенности            : 4:2:0
Битовая глубина                          : 8 бит
Тип развёртки                            : Прогрессивная
Бит/(Пиксели*Кадры)                      : 0.578
Размер потока                            : 10,2 Гбайт (77%)
Библиотека кодирования                   : x264 core 152 r2851kMod ba24899
Настройки программы                      : cabac=1 / ref=12 / deblock=1:-3:-3 / analyse=0x3:0x113 / me=umh / subme=11 / psy=1 / fade_compensate=0.00 / psy_rd=1.02:0.10 / mixed_ref=1 / me_range=48 / chroma_me=1 / trellis=2 / 8x8dct=1 / cqm=0 / deadzone=21,11 / fast_pskip=0 / chroma_qp_offset=-3 / threads=4 / lookahead_threads=1 / sliced_threads=0 / nr=0 / decimate=0 / interlaced=0 / bluray_compat=0 / constrained_intra=0 / bframes=14 / b_pyramid=2 / b_adapt=2 / b_bias=0 / direct=3 / weightb=1 / open_gop=0 / weightp=2 / keyint=240 / keyint_min=23 / scenecut=40 / intra_refresh=0 / rc_lookahead=40 / rc=2pass / mbtree=0 / bitrate=9500 / ratetol=1.0 / qcomp=0.65 / qpmin=0 / qpmax=33 / qpstep=4 / cplxblur=20.0 / qblur=0.5 / vbv_maxrate=50000 / vbv_bufsize=62500 / nal_hrd=none / filler=0 / ip_ratio=1.40 / pb_ratio=1.30 / aq=3:0.67
Язык                                     : English
Default                                  : Да
Forced                                   : Нет
Цветовой диапазон                        : Limited
Основные цвета                           : BT.709
Характеристики трансфера                 : BT.709
Коэффициенты матрицы                     : BT.709

Аудио #1
Идентификатор                            : 2
Формат                                   : AC-3
Формат/Информация                        : Audio Coding 3
Коммерческое название                    : Dolby Digital
Идентификатор кодека                     : A_AC3
Продолжительность                        : 2 ч. 37 м.
Вид битрейта                             : Постоянный
Битрейт                                  : 640 Кбит/сек
Каналы                                   : 6 каналов
ChannelLayout                            : L R C LFE Ls Rs
Частота                                  : 48,0 КГц
Частота кадров                           : 31,250 кадров/сек (1536 SPF)
Метод сжатия                             : С потерями
Размер потока                            : 722 Мбайт (5%)
Заголовок                                : MVO-R5
Язык                                     : Russian
ServiceKind/String                       : Complete Main
Default                                  : Да
Forced                                   : Нет

Аудио #2
Идентификатор                            : 3
Формат                                   : AC-3
Формат/Информация                        : Audio Coding 3
Коммерческое название                    : Dolby Digital
Идентификатор кодека                     : A_AC3
Продолжительность                        : 2 ч. 37 м.
Вид битрейта                             : Постоянный
Битрейт                                  : 640 Кбит/сек
Каналы                                   : 6 каналов
ChannelLayout                            : L R C LFE Ls Rs
Частота                                  : 48,0 КГц
Частота кадров                           : 31,250 кадров/сек (1536 SPF)
Метод сжатия                             : С потерями
Размер потока                            : 722 Мбайт (5%)
Заголовок                                : AVO-?
Язык                                     : Russian
ServiceKind/String                       : Complete Main
Default                                  : Нет
Forced                                   : Нет

Аудио #3
Идентификатор                            : 4
Формат                                   : AC-3
Формат/Информация                        : Audio Coding 3
Коммерческое название                    : Dolby Digital
Идентификатор кодека                     : A_AC3
Продолжительность                        : 2 ч. 37 м.
Вид битрейта                             : Постоянный
Битрейт                                  : 640 Кбит/сек
Каналы                                   : 6 каналов
ChannelLayout                            : L R C LFE Ls Rs
Частота                                  : 48,0 КГц
Частота кадров                           : 31,250 кадров/сек (1536 SPF)
Метод сжатия                             : С потерями
Размер потока                            : 722 Мбайт (5%)
Заголовок                                : AVO-Живов
Язык                                     : Russian
ServiceKind/String                       : Complete Main
Default                                  : Нет
Forced                                   : Нет

Аудио #4
Идентификатор                            : 5
Формат                                   : AC-3
Формат/Информация                        : Audio Coding 3
Коммерческое название                    : Dolby Digital
Идентификатор кодека                     : A_AC3
Продолжительность                        : 2 ч. 37 м.
Вид битрейта                             : Постоянный
Битрейт                                  : 640 Кбит/сек
Каналы                                   : 6 каналов
ChannelLayout                            : L R C LFE Ls Rs
Частота                                  : 48,0 КГц
Частота кадров                           : 31,250 кадров/сек (1536 SPF)
Метод сжатия                             : С потерями
Размер потока                            : 722 Мбайт (5%)
Язык                                     : English
ServiceKind/String                       : Complete Main
Default                                  : Нет
Forced                                   : Нет

Текст #1
Идентификатор                            : 6
Формат                                   : UTF-8
Идентификатор кодека                     : S_TEXT/UTF8
Идентификатор кодека/Информация          : UTF-8 Plain Text
Язык                                     : Russian
Default                                  : Нет
Forced                                   : Нет

Текст #2
Идентификатор                            : 7
Формат                                   : UTF-8
Идентификатор кодека                     : S_TEXT/UTF8
Идентификатор кодека/Информация          : UTF-8 Plain Text
Язык                                     : English
Default                                  : Нет
Forced                                   : Нет

Меню
00:00:00.000                             : безымянный)
00:06:14.499                             : безымянный)
00:12:41.344                             : безымянный)
00:15:12.245                             : безымянный)
00:17:23.292                             : безымянный)
00:22:30.933                             : безымянный)
00:29:00.030                             : безымянный)
00:37:42.844                             : безымянный)
00:43:55.132                             : безымянный)
00:48:01.504                             : безымянный)
00:51:18.033                             : безымянный)
00:54:29.433                             : безымянный)
00:57:20.062                             : безымянный)
01:01:10.876                             : безымянный)
01:03:49.242                             : безымянный)
01:12:11.327                             : безымянный)
01:17:26.767                             : безымянный)
01:23:00.893                             : безымянный)
01:30:45.440                             : безымянный)
01:40:28.773                             : безымянный)
01:43:58.524                             : безымянный)
01:51:27.681                             : безымянный)
01:56:44.080                             : безымянный)
02:03:34.282                             : безымянный)
02:15:42.551                             : безымянный)
02:19:20.811                             : безымянный)
02:23:33.730                             : безымянный)
02:26:37.747                             : безымянный)
02:30:18.968                             : безымянный)
02:33:18.106                             : безымянный)
http://3.lostpic.net/images/2020/02/25/8bae795d1d53cf3ab1c2433575a44148.th.pnghttp://3.lostpic.net/images/2020/02/25/7689f4ac2e6facd4980063b59a222f34.th.pnghttp://3.lostpic.net/images/2020/02/25/2258003498c8e334054b940f7720b4ab.th.pnghttp://3.lostpic.net/images/2020/02/25/48f75516b5ec1e2043126e91fa4c9178.th.pnghttp://3.lostpic.net/images/2020/02/25/c331d214075bb4e5ed5a9b2cb6b0abb3.th.pnghttp://3.lostpic.net/images/2020/02/25/5bb94de9ba67d4308ccf2916f6f7c690.th.pnghttp://3.lostpic.net/images/2020/02/25/0012b469ae3736a806f50f149c073521.th.pnghttp://3.lostpic.net/images/2020/02/25/d459af9d13251762938d8d85b50cff9d.th.pnghttp://3.lostpic.net/images/2020/02/25/5882f2ccbdfedbe1d646b6902ac17657.th.pnghttp://3.lostpic.net/images/2020/02/25/be481423d17663c6b9a6ecf3fe08197d.th.png
http://korsar.tv/images/Banner-Korsar.gif http://korsar.tv/img/VKontakte.png  
Похожих раздач нет


Привет, гость
- Запомнить
Регистрация
Информация

Торрент трекер ExKinoRay.TV

Здесь вы можете скачать новые фильмы, сериалы, игры, музыку, софт и многое другое. Большая скорость скачивания на мультитрекерных раздачах. Всё абсолютно бесплатно.