Эпидемия | Outbreak | 1995 | BDRip (720p) | DUB, MVO, DVO, AVO - KORSAR Одобрено администрацией

Участники
  • Раздают7
  • Качают0
  • Просмотров61
  • Скачали1
  • Комментариев0
  • Список файлов1
Залил раздачу
Поблагодарить
Никто
Характеристики
Вес8.47 GB (9,093,542,730)
Залит2020-03-21 11:24:52 Обновлено2020-04-03 21:03:48
Сетевая Нет
Чтобы скачать, необходимо авторизоваться или зарегистрироваться.
Статус: Одобрено администрацией
Хотите видеть детали Раздачи пройдите авторизацию или регистрацию!

Спасибо за понимание...
Просьба отключить блокировщики рекламы на странице скриншотов по адресу: http://3.lostpic.net/, этим Вы поможете существованию проекта. Заранее спасибо!
****************************************************************
x264 [info]: frame I:1233  Avg QP:15.40  size:134767
x264 [info]: frame P:43274 Avg QP:17.65  size: 54548
x264 [info]: frame B:139925 Avg QP:19.41  size: 23152
****************************************************************
Формат                                   : Matroska
Версия формата                           : Version 2
Размер файла                             : 8,47 Гбайт
Продолжительность                        : 2 ч. 8 м.
Общий поток                              : 9454 Кбит/сек
Название фильма                          : = Эпидемия / Outbreak (1995) BDRip 720p - KORSAR =
Дата кодирования                         : UTC 2019-03-21 22:55:01
Программа кодирования                    : mkvmerge v5.8.0 ('No Sleep / Pillow') built on Sep  2 2012 15:37:04
Библиотека кодирования                   : libebml v1.2.3 + libmatroska v1.3.0
Attachment                               : Yes

Видео
Идентификатор                            : 1
Формат                                   : AVC
Формат/Информация                        : Advanced Video Codec
Профиль формата                          : High@L4.1
Параметр CABAC формата                   : Да
Параметр ReFrames формата                : 9 кадров
Идентификатор кодека                     : V_MPEG4/ISO/AVC
Продолжительность                        : 2 ч. 8 м.
Битрейт                                  : 6000 Кбит/сек
Ширина                                   : 1280 пикселей
Высота                                   : 720 пикселей
Соотношение сторон                       : 16:9
Режим частоты кадров                     : Постоянный
Частота кадров                           : 23,976 кадра/сек
Цветовое пространство                    : YUV
Субдискретизация насыщенности            : 4:2:0
Битовая глубина                          : 8 бит
Тип развёртки                            : Прогрессивная
Бит/(Пиксели*Кадры)                      : 0.272
Размер потока                            : 5,20 Гбайт (61%)
Заголовок                                : Эпидемия / Outbreak (1995) BDRip 720p - KORSAR
Библиотека кодирования                   : x264 core 152 r2851kMod ba24899
Настройки программы                      : cabac=1 / ref=9 / deblock=1:-3:-3 / analyse=0x3:0x113 / me=umh / subme=11 / psy=1 / fade_compensate=0.00 / psy_rd=1.00:0.00 / mixed_ref=1 / me_range=48 / chroma_me=1 / trellis=2 / 8x8dct=1 / cqm=0 / deadzone=21,11 / fast_pskip=0 / chroma_qp_offset=-2 / threads=12 / lookahead_threads=3 / sliced_threads=0 / nr=0 / decimate=0 / interlaced=0 / bluray_compat=0 / constrained_intra=0 / bframes=10 / b_pyramid=2 / b_adapt=2 / b_bias=0 / direct=3 / weightb=1 / open_gop=0 / weightp=2 / keyint=240 / keyint_min=23 / scenecut=40 / intra_refresh=0 / rc_lookahead=60 / rc=2pass / mbtree=0 / bitrate=6000 / ratetol=1.0 / qcomp=0.68 / qpmin=0 / qpmax=39 / qpstep=4 / cplxblur=20.0 / qblur=0.5 / vbv_maxrate=50000 / vbv_bufsize=62500 / nal_hrd=none / filler=0 / ip_ratio=1.25 / pb_ratio=1.30 / aq=3:0.80
Язык                                     : English
Default                                  : Да
Forced                                   : Нет
Основные цвета                           : BT.709
Характеристики трансфера                 : BT.709
Коэффициенты матрицы                     : BT.709

Аудио #1
Идентификатор                            : 2
Формат                                   : AC-3
Формат/Информация                        : Audio Coding 3
Расширение режима                        : CM (complete main)
Параметр Endianness формата              : Big
Идентификатор кодека                     : A_AC3
Продолжительность                        : 2 ч. 8 м.
Вид битрейта                             : Постоянный
Битрейт                                  : 384 Кбит/сек
Каналы                                   : 6 каналов
Расположение каналов                     : Front: L C R, Side: L R, LFE
Частота                                  : 48,0 КГц
Битовая глубина                          : 16 бит
Метод сжатия                             : С потерями
Размер потока                            : 352 Мбайт (4%)
Заголовок                                : Дубляж ( Варус-Видео )
Язык                                     : Russian
Default                                  : Да
Forced                                   : Нет

Аудио #2
Идентификатор                            : 3
Формат                                   : AC-3
Формат/Информация                        : Audio Coding 3
Расширение режима                        : CM (complete main)
Параметр Endianness формата              : Big
Идентификатор кодека                     : A_AC3
Продолжительность                        : 2 ч. 8 м.
Вид битрейта                             : Постоянный
Битрейт                                  : 384 Кбит/сек
Каналы                                   : 6 каналов
Расположение каналов                     : Front: L C R, Side: L R, LFE
Частота                                  : 48,0 КГц
Битовая глубина                          : 16 бит
Метод сжатия                             : С потерями
Размер потока                            : 352 Мбайт (4%)
Заголовок                                : Дубляж ( Мост Видео )
Язык                                     : Russian
Default                                  : Нет
Forced                                   : Нет

Аудио #3
Идентификатор                            : 4
Формат                                   : AC-3
Формат/Информация                        : Audio Coding 3
Расширение режима                        : CM (complete main)
Параметр Endianness формата              : Big
Идентификатор кодека                     : A_AC3
Продолжительность                        : 2 ч. 8 м.
Вид битрейта                             : Постоянный
Битрейт                                  : 192 Кбит/сек
Каналы                                   : 2 канала
Расположение каналов                     : Front: L R
Частота                                  : 48,0 КГц
Битовая глубина                          : 16 бит
Метод сжатия                             : С потерями
Размер потока                            : 176 Мбайт (2%)
Заголовок                                : MVO ( ОРТ )
Язык                                     : Russian
Default                                  : Нет
Forced                                   : Нет

Аудио #4
Идентификатор                            : 5
Формат                                   : AC-3
Формат/Информация                        : Audio Coding 3
Расширение режима                        : CM (complete main)
Параметр Endianness формата              : Big
Идентификатор кодека                     : A_AC3
Продолжительность                        : 2 ч. 8 м.
Вид битрейта                             : Постоянный
Битрейт                                  : 192 Кбит/сек
Каналы                                   : 2 канала
Расположение каналов                     : Front: L R
Частота                                  : 48,0 КГц
Битовая глубина                          : 16 бит
Метод сжатия                             : С потерями
Размер потока                            : 176 Мбайт (2%)
Заголовок                                : MVO ( РОССИЯ )
Язык                                     : Russian
Default                                  : Нет
Forced                                   : Нет

Аудио #5
Идентификатор                            : 6
Формат                                   : AC-3
Формат/Информация                        : Audio Coding 3
Расширение режима                        : CM (complete main)
Параметр Endianness формата              : Big
Идентификатор кодека                     : A_AC3
Продолжительность                        : 2 ч. 8 м.
Вид битрейта                             : Постоянный
Битрейт                                  : 192 Кбит/сек
Каналы                                   : 2 канала
Расположение каналов                     : Front: L R
Частота                                  : 48,0 КГц
Битовая глубина                          : 16 бит
Метод сжатия                             : С потерями
Размер потока                            : 176 Мбайт (2%)
Заголовок                                : DVO ( НТВ )
Язык                                     : Russian
Default                                  : Нет
Forced                                   : Нет

Аудио #6
Идентификатор                            : 7
Формат                                   : AC-3
Формат/Информация                        : Audio Coding 3
Расширение режима                        : CM (complete main)
Параметр Endianness формата              : Big
Идентификатор кодека                     : A_AC3
Продолжительность                        : 2 ч. 8 м.
Вид битрейта                             : Постоянный
Битрейт                                  : 640 Кбит/сек
Каналы                                   : 6 каналов
Расположение каналов                     : Front: L C R, Side: L R, LFE
Частота                                  : 48,0 КГц
Битовая глубина                          : 16 бит
Метод сжатия                             : С потерями
Размер потока                            : 587 Мбайт (7%)
Заголовок                                : AVO ( Визгунов )
Язык                                     : Russian
Default                                  : Нет
Forced                                   : Нет

Аудио #7
Идентификатор                            : 8
Формат                                   : AC-3
Формат/Информация                        : Audio Coding 3
Расширение режима                        : CM (complete main)
Параметр Endianness формата              : Big
Идентификатор кодека                     : A_AC3
Продолжительность                        : 2 ч. 8 м.
Вид битрейта                             : Постоянный
Битрейт                                  : 640 Кбит/сек
Каналы                                   : 6 каналов
Расположение каналов                     : Front: L C R, Side: L R, LFE
Частота                                  : 48,0 КГц
Битовая глубина                          : 16 бит
Метод сжатия                             : С потерями
Размер потока                            : 587 Мбайт (7%)
Заголовок                                : AVO ( Гаврилов )
Язык                                     : Russian
Default                                  : Нет
Forced                                   : Нет

Аудио #8
Идентификатор                            : 9
Формат                                   : AC-3
Формат/Информация                        : Audio Coding 3
Расширение режима                        : CM (complete main)
Параметр Endianness формата              : Big
Идентификатор кодека                     : A_AC3
Продолжительность                        : 2 ч. 8 м.
Вид битрейта                             : Постоянный
Битрейт                                  : 192 Кбит/сек
Каналы                                   : 2 канала
Расположение каналов                     : Front: L R
Частота                                  : 48,0 КГц
Битовая глубина                          : 16 бит
Метод сжатия                             : С потерями
Размер потока                            : 176 Мбайт (2%)
Заголовок                                : AVO ( Кашкин )
Язык                                     : Russian
Default                                  : Нет
Forced                                   : Нет

Аудио #9
Идентификатор                            : 10
Формат                                   : AC-3
Формат/Информация                        : Audio Coding 3
Расширение режима                        : CM (complete main)
Параметр Endianness формата              : Big
Идентификатор кодека                     : A_AC3
Продолжительность                        : 2 ч. 8 м.
Вид битрейта                             : Постоянный
Битрейт                                  : 640 Кбит/сек
Каналы                                   : 6 каналов
Расположение каналов                     : Front: L C R, Side: L R, LFE
Частота                                  : 48,0 КГц
Битовая глубина                          : 16 бит
Метод сжатия                             : С потерями
Размер потока                            : 587 Мбайт (7%)
Язык                                     : English
Default                                  : Нет
Forced                                   : Нет

Текст #1
Идентификатор                            : 11
Формат                                   : UTF-8
Идентификатор кодека                     : S_TEXT/UTF8
Идентификатор кодека/Информация          : UTF-8 Plain Text
Язык                                     : Russian
Default                                  : Нет
Forced                                   : Нет

Текст #2
Идентификатор                            : 12
Формат                                   : UTF-8
Идентификатор кодека                     : S_TEXT/UTF8
Идентификатор кодека/Информация          : UTF-8 Plain Text
Язык                                     : English
Default                                  : Нет
Forced                                   : Нет

Меню
00:00:00.000                             : en:00:00:00.000
00:03:55.652                             : en:00:03:55.652
00:07:05.884                             : en:00:07:05.884
00:10:18.159                             : en:00:10:18.159
00:13:16.504                             : en:00:13:16.504
00:17:54.115                             : en:00:17:54.115
00:20:33.441                             : en:00:20:33.441
00:23:08.470                             : en:00:23:08.470
00:27:46.915                             : en:00:27:46.915
00:30:26.950                             : en:00:30:26.950
00:34:40.495                             : en:00:34:40.495
00:37:46.598                             : en:00:37:46.598
00:41:08.257                             : en:00:41:08.257
00:43:51.921                             : en:00:43:51.921
00:47:23.466                             : en:00:47:23.466
00:49:34.930                             : en:00:49:34.930
00:51:39.430                             : en:00:51:39.430
00:54:11.498                             : en:00:54:11.498
00:56:16.707                             : en:00:56:16.707
00:59:16.094                             : en:00:59:16.094
01:03:23.008                             : en:01:03:23.008
01:07:30.922                             : en:01:07:30.922
01:08:42.827                             : en:01:08:42.827
01:10:52.290                             : en:01:10:52.290
01:13:43.544                             : en:01:13:43.544
01:15:36.449                             : en:01:15:36.449
01:18:21.822                             : en:01:18:21.822
01:22:13.428                             : en:01:22:13.428
01:26:22.135                             : en:01:26:22.135
01:29:15.934                             : en:01:29:15.934
01:32:30.628                             : en:01:32:30.628
01:33:41.032                             : en:01:33:41.032
01:36:43.381                             : en:01:36:43.381
01:38:43.876                             : en:01:38:43.876
01:39:41.517                             : en:01:39:41.517
01:41:27.665                             : en:01:41:27.665
01:44:10.578                             : en:01:44:10.578
01:45:41.126                             : en:01:45:41.126
01:48:34.258                             : en:01:48:34.258
01:51:15.294                             : en:01:51:15.294
01:56:05.041                             : en:01:56:05.041
01:58:07.330                             : en:01:58:07.330
01:59:07.015                             : en:01:59:07.015
02:00:54.622                             : en:02:00:54.622
02:02:22.085                             : en:02:02:22.085
http://img16.lostpic.net/2019/03/22/a1dd1e5496afe0d547cea540ac212731.th.png http://img14.lostpic.net/2019/03/22/b80531e635d325e90661f9d63d95e860.th.png http://img16.lostpic.net/2019/03/22/2795a925e4a7f7672f39a21716b65ff4.th.png http://img14.lostpic.net/2019/03/22/4bf42d0f6f200b1618a78df22737d606.th.png
http://img16.lostpic.net/2019/03/22/a3292305244e5f5235b21e32d5648a6b.th.png http://img14.lostpic.net/2019/03/22/bbabfa1cf809efb79a03eefbd20293db.th.png http://img16.lostpic.net/2019/03/22/0dc527828bbec241a7c427978a3f7763.th.png http://img14.lostpic.net/2019/03/22/274911460bc51fed34756dfa6e5e57d9.th.png
http://korsar.tv/images/Banner-Korsar.gif http://korsar.tv/img/VKontakte.png  


Привет, гость
- Запомнить
Регистрация
Информация

Торрент трекер ExKinoRay.TV

Здесь вы можете скачать новые фильмы, сериалы, игры, музыку, софт и многое другое. Большая скорость скачивания на мультитрекерных раздачах. Всё абсолютно бесплатно.