Охота на воров | Den of Thieves | 2018 | Theatrical Cut | GER Transfer | BDRip (720p) | DUB - KORSAR Одобрено администрацией

Участники
  • Раздают7
  • Качают1
  • Просмотров25
  • Скачали2
  • Комментариев0
  • Список файлов1
Залил раздачу
Поблагодарить
Никто
Характеристики
Вес6.66 GB (7,154,250,200)
Залит2020-03-21 12:08:37 Обновлено2020-04-03 21:00:35
Сетевая Нет
Чтобы скачать, необходимо авторизоваться или зарегистрироваться.
Статус: Одобрено администрацией
Хотите видеть детали Раздачи пройдите авторизацию или регистрацию!

Спасибо за понимание...
Просьба отключить блокировщики рекламы на странице скриншотов по адресу: http://3.lostpic.net/, этим Вы поможете существованию проекта. Заранее спасибо!
************************************************************************
x264 [info]: frame I:1514 Avg QP:14.77 size:150976
x264 [info]: frame P:33262 Avg QP:17.56 size: 77960
x264 [info]: frame B:142828 Avg QP:19.37 size: 37868
x264 [info]: consecutive B-frames: 1.4% 1.5% 3.5% 12.8% 17.2% 38.9% 10.8% 9.1% 3.1% 0.9% 0.8%
************************************************************************
Формат : Matroska
Версия формата : Version 2
Размер файла : 6,66 Гбайт
Продолжительность : 2 ч. 20 м.
Общий поток : 6775 Кбит/сек
Название фильма : = Охота на воров / Den of Thieves (2018) BDRip 720p - KORSAR =
Дата кодирования : UTC 2018-10-18 10:08:39
Программа кодирования : mkvmerge v5.8.0 ('No Sleep / Pillow') built on Sep 2 2012 15:37:04
Библиотека кодирования : libebml v1.2.3 + libmatroska v1.3.0
Attachment : Yes

Видео
Идентификатор : 1
Формат : AVC
Формат/Информация : Advanced Video Codec
Профиль формата : High@L4.1
Параметр CABAC формата : Да
Параметр ReFrames формата : 12 кадров
Идентификатор кодека : V_MPEG4/ISO/AVC
Продолжительность : 2 ч. 20 м.
Битрейт : 5500 Кбит/сек
Ширина : 1280 пикселей
Высота : 534 пикселя
Соотношение сторон : 2,40:1
Режим частоты кадров : Постоянный
Частота кадров : 24,000 кадра/сек
Цветовое пространство : YUV
Субдискретизация насыщенности : 4:2:0
Битовая глубина : 8 бит
Тип развёртки : Прогрессивная
Бит/(Пиксели*Кадры) : 0.335
Размер потока : 5,27 Гбайт (79%)
Заголовок : Охота на воров / Den of Thieves (2018) BDRip 720p - KORSAR
Библиотека кодирования : x264 core 152 r2851kMod ba24899
Настройки программы : cabac=1 / ref=12 / deblock=1:-3:-3 / analyse=0x3:0x113 / me=umh / subme=11 / psy=1 / fade_compensate=0.00 / psy_rd=1.02:0.04 / mixed_ref=1 / me_range=48 / chroma_me=1 / trellis=2 / 8x8dct=1 / cqm=0 / deadzone=21,11 / fast_pskip=0 / chroma_qp_offset=-3 / threads=12 / lookahead_threads=3 / sliced_threads=0 / nr=0 / decimate=0 / interlaced=0 / bluray_compat=0 / constrained_intra=0 / bframes=12 / b_pyramid=2 / b_adapt=2 / b_bias=0 / direct=3 / weightb=1 / open_gop=0 / weightp=2 / keyint=240 / keyint_min=24 / scenecut=40 / intra_refresh=0 / rc_lookahead=60 / rc=2pass / mbtree=0 / bitrate=5500 / ratetol=1.0 / qcomp=0.70 / qpmin=0 / qpmax=39 / qpstep=4 / cplxblur=20.0 / qblur=0.5 / vbv_maxrate=50000 / vbv_bufsize=62500 / nal_hrd=none / filler=0 / ip_ratio=1.40 / pb_ratio=1.30 / aq=3:0.80
Язык : English
Default : Да
Forced : Нет
Основные цвета : BT.709
Характеристики трансфера : BT.709
Коэффициенты матрицы : BT.709

Аудио #1
Идентификатор : 2
Формат : AC-3
Формат/Информация : Audio Coding 3
Расширение режима : CM (complete main)
Параметр Endianness формата : Big
Идентификатор кодека : A_AC3
Продолжительность : 2 ч. 20 м.
Вид битрейта : Постоянный
Битрейт : 640 Кбит/сек
Каналы : 6 каналов
Расположение каналов : Front: L C R, Side: L R, LFE
Частота : 48,0 КГц
Битовая глубина : 16 бит
Метод сжатия : С потерями
Размер потока : 644 Мбайт (9%)
Заголовок : Дубляж
Язык : Russian
Default : Да
Forced : Нет

Аудио #2
Идентификатор : 3
Формат : AC-3
Формат/Информация : Audio Coding 3
Расширение режима : CM (complete main)
Параметр Endianness формата : Big
Идентификатор кодека : A_AC3
Продолжительность : 2 ч. 20 м.
Вид битрейта : Постоянный
Битрейт : 640 Кбит/сек
Каналы : 6 каналов
Расположение каналов : Front: L C R, Side: L R, LFE
Частота : 48,0 КГц
Битовая глубина : 16 бит
Метод сжатия : С потерями
Размер потока : 644 Мбайт (9%)
Язык : English
Default : Нет
Forced : Нет

Текст #1
Идентификатор : 4
Формат : UTF-8
Идентификатор кодека : S_TEXT/UTF8
Идентификатор кодека/Информация : UTF-8 Plain Text
Язык : Russian
Default : Нет
Forced : Нет

Текст #2
Идентификатор : 5
Формат : UTF-8
Идентификатор кодека : S_TEXT/UTF8
Идентификатор кодека/Информация : UTF-8 Plain Text
Заголовок : forced
Язык : English
Default : Нет
Forced : Нет

Текст #3
Идентификатор : 6
Формат : UTF-8
Идентификатор кодека : S_TEXT/UTF8
Идентификатор кодека/Информация : UTF-8 Plain Text
Язык : English
Default : Нет
Forced : Нет

Меню
00:00:00.000 : en:00:00:00.000
00:09:35.417 : en:00:09:35.417
00:19:17.083 : en:00:19:17.083
00:32:39.000 : en:00:32:39.000
00:44:50.708 : en:00:44:50.708
00:58:23.792 : en:00:58:23.792
01:10:44.625 : en:01:10:44.625
01:23:47.458 : en:01:23:47.458
01:37:13.792 : en:01:37:13.792
01:49:50.333 : en:01:49:50.333
02:05:56.333 : en:02:05:56.333
02:13:42.458 : en:02:13:42.458
http://img15.lostpic.net/2018/12/22/19f8234a6912816f5f735fb2d45aba2b.th.png http://img14.lostpic.net/2018/12/22/0dac94ab2e9442ca05ecf79defb91f49.th.png http://img15.lostpic.net/2018/12/22/1b8ca964889d8275700500def7caddf2.th.png http://img14.lostpic.net/2018/12/22/f1f12c3643b38e81ab6b6df2902689e7.th.png
http://img15.lostpic.net/2018/12/22/c5a442d17e3bcc7567e7e31d89125399.th.png http://img14.lostpic.net/2018/12/22/b92b233a216b79f7dac4928ef246b9bc.th.png http://img15.lostpic.net/2018/12/22/57ac132ffb15793c4c86ab5dd795761f.th.png http://img14.lostpic.net/2018/12/22/f4d9e5f54e018fa2dab86b9cc7b867ff.th.png
http://korsar.tv/images/Banner-Korsar.gif http://korsar.tv/img/VKontakte.png  


Привет, гость
- Запомнить
Регистрация
Информация

Торрент трекер ExKinoRay.TV

Здесь вы можете скачать новые фильмы, сериалы, игры, музыку, софт и многое другое. Большая скорость скачивания на мультитрекерных раздачах. Всё абсолютно бесплатно.