Тайна Санта-Виттории | The Secret of Santa Vittoria | 1969 | BDRemux 1080p | GER Transfer | Remastered Одобрено администрацией

Участники
  • Раздают0
  • Качают1
  • Просмотров21
  • Скачали3
  • Комментариев0
  • Список файлов1
Залил раздачу
Поблагодарить
Характеристики
Вес21.56 GB (23,151,033,547)
Залит2020-03-21 22:23:35 Обновлено2020-03-22 04:42:13
Сетевая Нет
Чтобы скачать, необходимо авторизоваться или зарегистрироваться.
Статус: Одобрено администрацией
Хотите видеть детали Раздачи пройдите авторизацию или регистрацию!

Спасибо за понимание...
Общее
Уникальный идентификатор                 : 308344396100752466137903266983366765912 (0xE7F8F876D889D2B27782F1BB84AE2D58)
Полное имя                               : The.Secret.of.Santa.Vittoria.REMASTERED.1969.BluRay.REMUX.1080p.mkv
Формат                                   : Matroska
Версия формата                           : Version 4
Размер файла                             : 21,6 Гбайт
Продолжительность                        : 2 ч. 19 м.
Режим общего битрейта                    : Переменный
Общий поток                              : 22,1 Мбит/сек
Название фильма                          : The.Secret.of.Santa.Vittoria.REMASTERED.1969.BluRay.REMUX.1080p by Koenig
Дата кодирования                         : UTC 2020-03-21 13:04:14
Программа кодирования                    : mkvmerge v28.2.0 ('The Awakening') 32-bit
Библиотека кодирования                   : libebml v1.3.6 + libmatroska v1.4.9
Обложка                                  : Yes
Attachments                              : cover.jpg

Видео
Идентификатор                            : 1
Формат                                   : AVC
Формат/Информация                        : Advanced Video Codec
Профиль формата                          : High@L4.1
Настройки формата                        : CABAC / 4 Ref Frames
Параметр CABAC формата                   : Да
Параметр RefFrames формата               : 4 кадра
Идентификатор кодека                     : V_MPEG4/ISO/AVC
Продолжительность                        : 2 ч. 19 м.
Вид битрейта                             : Переменный
Битрейт                                  : 20,0 Мбит/сек
Максимальный битрейт                     : 35,0 Мбит/сек
Ширина                                   : 1920 пикселей
Высота                                   : 1080 пикселей
Соотношение сторон                       : 16:9
Режим частоты кадров                     : Постоянный
Частота кадров                           : 23,976 (24000/1001) кадра/сек
Стандарт вещания                         : NTSC
Цветовое пространство                    : YUV
Субдискретизация насыщенности            : 4:2:0
Битовая глубина                          : 8 бит
Тип развёртки                            : Прогрессивная
Бит/(Пиксели*Кадры)                      : 0.402
Размер потока                            : 19,5 Гбайт (91%)
Заголовок                                : OLDHAM
Язык                                     : English
Default                                  : Да
Forced                                   : Нет
Цветовой диапазон                        : Limited
Основные цвета                           : BT.709
Характеристики трансфера                 : BT.709
Коэффициенты матрицы                     : BT.709

Аудио #1
Идентификатор                            : 2
Формат                                   : AC-3
Формат/Информация                        : Audio Coding 3
Коммерческое название                    : Dolby Digital
Идентификатор кодека                     : A_AC3
Продолжительность                        : 2 ч. 19 м.
Вид битрейта                             : Постоянный
Битрейт                                  : 192 Кбит/сек
Каналы                                   : 2 канала
Channel layout                           : L R
Частота                                  : 48,0 КГц
Частота кадров                           : 31,250 кадров/сек (1536 SPF)
Битовая глубина                          : 16 бит
Метод сжатия                             : С потерями
Размер потока                            : 192 Мбайт (1%)
Заголовок                                : DVO - HTB+
Язык                                     : Russian
ServiceKind/String                       : Complete Main
Default                                  : Да
Forced                                   : Нет

Аудио #2
Идентификатор                            : 3
Формат                                   : AC-3
Формат/Информация                        : Audio Coding 3
Коммерческое название                    : Dolby Digital
Идентификатор кодека                     : A_AC3
Продолжительность                        : 2 ч. 19 м.
Вид битрейта                             : Постоянный
Битрейт                                  : 192 Кбит/сек
Каналы                                   : 2 канала
Channel layout                           : L R
Частота                                  : 48,0 КГц
Частота кадров                           : 31,250 кадров/сек (1536 SPF)
Битовая глубина                          : 16 бит
Метод сжатия                             : С потерями
Размер потока                            : 192 Мбайт (1%)
Заголовок                                : MVO - 5-й канал СПб
Язык                                     : Russian
ServiceKind/String                       : Complete Main
Default                                  : Нет
Forced                                   : Нет

Аудио #3
Идентификатор                            : 4
Формат                                   : DTS XLL
Формат/Информация                        : Digital Theater Systems
Коммерческое название                    : DTS-HD Master Audio
Идентификатор кодека                     : A_DTS
Продолжительность                        : 2 ч. 19 м.
Вид битрейта                             : Переменный
Битрейт                                  : 1673 Кбит/сек
Каналы                                   : 2 канала
Channel layout                           : L R
Частота                                  : 48,0 КГц
Частота кадров                           : 93,750 кадра/сек (512 SPF)
Битовая глубина                          : 16 бит
Метод сжатия                             : Без потерь
Размер потока                            : 1,64 Гбайт (8%)
Заголовок                                : Original
Язык                                     : English
Default                                  : Нет
Forced                                   : Нет

Текст
Идентификатор                            : 5
Формат                                   : PGS
Режим смешивания                         : zlib
Идентификатор кодека                     : S_HDMV/PGS
Идентификатор кодека/Информация          : Picture based subtitle format used on BDs/HD-DVDs
Продолжительность                        : 2 ч. 15 м.
Битрейт                                  : 32,6 Кбит/сек
ElementCount                             : 3278
Размер потока                            : 31,5 Мбайт (0%)
Заголовок                                : PGS
Язык                                     : German
Default                                  : Да
Forced                                   : Нет

Меню
00:00:00.000                             : en:
00:07:39.292                             : en:
00:12:46.891                             : en:
00:25:56.179                             : en:
00:31:59.417                             : en:
00:37:14.315                             : en:
00:46:55.562                             : en:
00:54:47.993                             : en:
01:02:47.847                             : en:
01:10:21.050                             : en:
01:20:41.503                             : en:
01:30:23.334                             : en:
01:33:58.215                             : en:
01:44:37.729                             : en:
02:00:03.988                             : en:
02:09:17.499                             : en:
http://a.radikal.ru/a07/2003/fa/0b7c6254891ct.jpg http://a.radikal.ru/a27/2003/13/5458ae8cf1d7t.jpg http://d.radikal.ru/d06/2003/76/a7c3d5ddd867t.jpg http://a.radikal.ru/a16/2003/ac/0f41aa704381t.jpg http://a.radikal.ru/a29/2003/f3/b625af850b43t.jpg http://b.radikal.ru/b33/2003/39/357bd9e68afft.jpg  


Привет, гость
- Запомнить
Регистрация
Информация

Торрент трекер ExKinoRay.TV

Здесь вы можете скачать новые фильмы, сериалы, игры, музыку, софт и многое другое. Большая скорость скачивания на мультитрекерных раздачах. Всё абсолютно бесплатно.