Спорт, спорт, спорт | 1970 | DVDRip (AVC) - KORSAR Одобрено администрацией

Участники
  • Раздают2
  • Качают0
  • Просмотров29
  • Скачали1
  • Комментариев0
  • Список файлов1
Залил раздачу
Поблагодарить
Никто
Характеристики
Вес2.18 GB (2,337,092,733)
Залит2020-03-21 23:10:55 Обновлено2020-03-22 03:48:09
Сетевая Нет
Чтобы скачать, необходимо авторизоваться или зарегистрироваться.
Статус: Одобрено администрацией
Хотите видеть детали Раздачи пройдите авторизацию или регистрацию!

Спасибо за понимание...
Просьба отключить блокировщики рекламы на странице скриншотов по адресу: http://3.lostpic.net/, этим Вы поможете существованию проекта. Заранее спасибо!
Сценарий Герман Климов. Композитор Альфред Шнитке.
Роль массажиста дяди Володи (Г. Светлани) озвучил Ролан Быков.

x264 [info]: frame I:876   Avg QP:17.63  size: 72158x264 [info]: frame P:33463 Avg QP:19.40  size: 35459x264 [info]: frame B:85628 Avg QP:21.45  size:  9996x264 [info]: consecutive B-frames:  4.7%  7.2% 16.6% 29.6% 18.2% 18.8%  2.9%  1.5%  0.5%  0.1%Общее
Уникальный идентификатор                 : 227012514789620792079542022918132959170 (0xAAC9051E9D71C800BA272FC7C24B87C2)
Полное имя                               : D:\Спорт, спорт, спорт_1970-DVDRip-AVC_KORSAR.mkv
Формат                                   : Matroska
Версия формата                           : Version 2
Размер файла                             : 2,18 Гбайт
Продолжительность                        : 1 ч. 19 м.
Общий поток                              : 3896 Кбит/сек
Название фильма                          : Спорт, спорт, спорт_1970-DVDRip-AVC_KORSAR
Дата кодирования                         : UTC 2020-01-16 18:44:56
Программа кодирования                    : mkvmerge v5.8.0 ('No Sleep / Pillow') built on Sep  2 2012 15:37:04
Библиотека кодирования                   : libebml v1.2.3 + libmatroska v1.3.0

Видео
Идентификатор                            : 1
Формат                                   : AVC
Формат/Информация                        : Advanced Video Codec
Профиль формата                          : High@L4.1
Настройки формата                        : CABAC / 14 Ref Frames
Параметр CABAC формата                   : Да
Параметр RefFrames формата               : 14 кадров
Идентификатор кодека                     : V_MPEG4/ISO/AVC
Продолжительность                        : 1 ч. 19 м.
Битрейт                                  : 3435 Кбит/сек
Ширина                                   : 692 пикселя
Высота                                   : 564 пикселя
Соотношение сторон                       : 4:3
Режим частоты кадров                     : Постоянный
Частота кадров                           : 25,000 кадров/сек
Цветовое пространство                    : YUV
Субдискретизация насыщенности            : 4:2:0
Битовая глубина                          : 8 бит
Тип развёртки                            : Прогрессивная
Бит/(Пиксели*Кадры)                      : 0.352
Размер потока                            : 1,92 Гбайт (88%)
Библиотека кодирования                   : x264 core 152 r2851kMod ba24899
Настройки программы                      : cabac=1 / ref=14 / deblock=1:-2:-1 / analyse=0x3:0x133 / me=umh / subme=10 / psy=1 / fade_compensate=0.00 / psy_rd=1.05:0.10 / mixed_ref=1 / me_range=40 / chroma_me=1 / trellis=2 / 8x8dct=1 / cqm=0 / deadzone=21,11 / fast_pskip=1 / chroma_qp_offset=-3 / threads=18 / lookahead_threads=3 / sliced_threads=0 / nr=0 / decimate=1 / interlaced=0 / bluray_compat=0 / constrained_intra=0 / bframes=9 / b_pyramid=2 / b_adapt=2 / b_bias=0 / direct=1 / weightb=1 / open_gop=0 / weightp=2 / keyint=250 / keyint_min=25 / scenecut=40 / intra_refresh=0 / rc=crf / mbtree=0 / crf=17.3000 / qcomp=0.63 / qpmin=0 / qpmax=33 / qpstep=4 / ip_ratio=1.40 / pb_ratio=1.30 / aq=2:0.90
Язык                                     : English
Default                                  : Да
Forced                                   : Нет
Цветовой диапазон                        : Limited
Основные цвета                           : BT.601 PAL
Характеристики трансфера                 : BT.470 System B/G
Коэффициенты матрицы                     : BT.470 System B/G

Аудио
Идентификатор                            : 2
Формат                                   : AC-3
Формат/Информация                        : Audio Coding 3
Коммерческое название                    : Dolby Digital
Идентификатор кодека                     : A_AC3
Продолжительность                        : 1 ч. 19 м.
Вид битрейта                             : Постоянный
Битрейт                                  : 384 Кбит/сек
Каналы                                   : 2 канала
ChannelLayout                            : L R
Частота                                  : 48,0 КГц
Частота кадров                           : 31,250 кадров/сек (1536 SPF)
Метод сжатия                             : С потерями
Размер потока                            : 220 Мбайт (10%)
Язык                                     : Russian
ServiceKind/String                       : Complete Main
Default                                  : Да
Forced                                   : Нет

Меню
00:00:00.000                             : en:Chapter 1
00:09:05.640                             : en:Chapter 2
00:17:49.560                             : en:Chapter 3
00:26:40.920                             : en:Chapter 4
00:35:31.680                             : en:Chapter 5
00:44:28.680                             : en:Chapter 6
00:53:28.800                             : en:Chapter 7
01:02:02.640                             : en:Chapter 8
01:10:52.440                             : en:Chapter 9

https://img16.lostpic.net/2020/01/16/cd355db48da8a65872635299f72f45de.th.png https://img15.lostpic.net/2020/01/16/c186f87163eadf149b08f208dc900353.th.png https://img16.lostpic.net/2020/01/16/fe1f230d94392712f1cc3ac95c65c575.th.png https://img15.lostpic.net/2020/01/16/47f4b3bc8bd5f97dc974a2df51ce8be7.th.png  
http://korsar.tv/images/Banner-Korsar.gif http://korsar.tv/img/VKontakte.png  


Привет, гость
- Запомнить
Регистрация
Информация

Торрент трекер ExKinoRay.TV

Здесь вы можете скачать новые фильмы, сериалы, игры, музыку, софт и многое другое. Большая скорость скачивания на мультитрекерных раздачах. Всё абсолютно бесплатно.