Транссибирский экспресс | 1977 | DVDRip (AVC) - KORSAR Одобрено администрацией

Участники
  • Раздают1
  • Качают0
  • Просмотров25
  • Скачали3
  • Комментариев0
  • Список файлов1
Залил раздачу
Поблагодарить
Никто
Характеристики
Вес2.70 GB (2,899,734,445)
Залит2020-03-22 13:25:14 Обновлено2020-03-22 13:32:26
Сетевая Нет
Чтобы скачать, необходимо авторизоваться или зарегистрироваться.
Статус: Одобрено администрацией
Хотите видеть детали Раздачи пройдите авторизацию или регистрацию!

Спасибо за понимание...
Просьба отключить блокировщики рекламы на странице скриншотов по адресу: http://3.lostpic.net/, этим Вы поможете существованию проекта. Заранее спасибо!
x264 [info]: frame I:644 Avg QP:18.31 size: 73023
x264 [info]: frame P:26860 Avg QP:19.83 size: 46244
x264 [info]: frame B:101322 Avg QP:21.72 size: 11813
x264 [info]: consecutive B-frames: 1.5% 1.2% 4.8% 17.1% 24.5% 49.1% 1.6% 0.1% 0.0%

General
Unique ID : 156599984909910447236483110547044414270 (0x75D00F5DA8769D38ED6A701BBF63B33E)
Complete name : S:\FILMS\Транссибирский экспресс (1977) DVDRip-AVC - KORSAR.mkv
Format : Matroska
Format version : Version 4
File size : 2.70 GiB
Duration : 1 h 25 min
Overall bit rate : 4 502 kb/s
Movie name : Транссибирский экспресс (1977)_rip_by_Cthulhu
Encoded date : UTC 2019-09-07 17:35:23
Writing application : mkvmerge v33.1.0 ('Primrose') 64-bit
Writing library : libebml v1.3.7 + libmatroska v1.5.0
Cover : Yes
Attachments : cover10.jpg

Video
ID : 1
Format : AVC
Format/Info : Advanced Video Codec
Format profile : High@L4.1
Format settings : CABAC / 16 Ref Frames
Format settings, CABAC : Yes
Format settings, Reference : 16 frames
Codec ID : V_MPEG4/ISO/AVC
Duration : 1 h 25 min
Bit rate : 3 860 kb/s
Width : 680 pixels
Height : 572 pixels
Display aspect ratio : 5:4
Original display aspect rat : 5:4
Frame rate mode : Constant
Frame rate : 25.000 FPS
Color space : YUV
Chroma subsampling : 4:2:0
Bit depth : 8 bits
Scan type : Progressive
Bits/(Pixel*Frame) : 0.397
Stream size : 2.32 GiB (86%)
Writing library : x264 core 152 r2851kMod ba24899
Encoding settings : cabac=1 / ref=16 / deblock=1:-1:-1 / analyse=0x3:0x133 / me=umh / subme=11 / psy=1 / fade_compensate=0.00 / psy_rd=1.00:0.05 / mixed_ref=1 / me_range=48 / chroma_me=1 / trellis=2 / 8x8dct=1 / cqm=0 / deadzone=21,11 / fast_pskip=1 / chroma_qp_offset=-3 / threads=18 / lookahead_threads=3 / sliced_threads=0 / nr=0 / decimate=1 / interlaced=0 / bluray_compat=0 / constrained_intra=0 / bframes=8 / b_pyramid=2 / b_adapt=2 / b_bias=0 / direct=3 / weightb=1 / open_gop=0 / weightp=2 / keyint=250 / keyint_min=25 / scenecut=40 / intra_refresh=0 / rc_lookahead=60 / rc=crf / mbtree=0 / crf=18.0000 / qcomp=0.62 / qpmin=0 / qpmax=39 / qpstep=4 / vbv_maxrate=50000 / vbv_bufsize=62500 / crf_max=0.0 / nal_hrd=none / filler=0 / ip_ratio=1.40 / pb_ratio=1.30 / aq=3:0.80
Language : Russian
Default : Yes
Forced : No
Color range : Limited
Color primaries : BT.601 PAL
Transfer characteristics : BT.470 System B/G
Matrix coefficients : BT.470 System B/G

Audio #1
ID : 2
Format : AC-3
Format/Info : Audio Coding 3
Commercial name : Dolby Digital
Codec ID : A_AC3
Duration : 1 h 25 min
Bit rate mode : Constant
Bit rate : 192 kb/s
Channel(s) : 2 channels
Channel layout : L R
Sampling rate : 48.0 kHz
Frame rate : 31.250 FPS (1536 SPF)
Bit depth : 16 bits
Compression mode : Lossy
Stream size : 118 MiB (4%)
Language : Russian
Service kind : Complete Main
Default : Yes
Forced : No

Audio #2
ID : 3
Format : AC-3
Format/Info : Audio Coding 3
Commercial name : Dolby Digital
Codec ID : A_AC3
Duration : 1 h 25 min
Bit rate mode : Constant
Bit rate : 448 kb/s
Channel(s) : 6 channels
Channel layout : L R C LFE Ls Rs
Sampling rate : 48.0 kHz
Frame rate : 31.250 FPS (1536 SPF)
Bit depth : 16 bits
Compression mode : Lossy
Stream size : 275 MiB (10%)
Language : Russian
Service kind : Complete Main
Default : No
Forced : No
Закрыть
https://img15.lostpic.net/2019/09/07/b92e6e137ffc0580501f14d5ced98bc9.th.png https://img15.lostpic.net/2019/09/07/213934b3d71ec50bd3c98372dd7bbb4d.th.png https://img15.lostpic.net/2019/09/07/684b250f3d3190136888a6a314938ff3.th.png https://img16.lostpic.net/2019/09/07/acfe0b8ed328759f971db1a503f64ea3.th.png https://img15.lostpic.net/2019/09/07/aa997202223bb773574118901da33551.th.png https://img15.lostpic.net/2019/09/07/c25fc5437617ccdec8d4fa7b4307bc32.th.png  
http://korsar.tv/images/Banner-Korsar.gif http://korsar.tv/img/VKontakte.png  


Привет, гость
- Запомнить
Регистрация
Информация

Торрент трекер ExKinoRay.TV

Здесь вы можете скачать новые фильмы, сериалы, игры, музыку, софт и многое другое. Большая скорость скачивания на мультитрекерных раздачах. Всё абсолютно бесплатно.