Волшебная лампа Аладдина | 1966 | BDRip (720p) - KORSAR Одобрено администрацией

Участники
  • Раздают4
  • Качают0
  • Просмотров15
  • Скачали3
  • Комментариев0
  • Список файлов1
Залил раздачу
Поблагодарить
Никто
Характеристики
Вес5.17 GB (5,550,014,035)
Залит2020-03-22 13:41:15 Обновлено2020-03-22 13:45:59
Сетевая Нет
Чтобы скачать, необходимо авторизоваться или зарегистрироваться.
Статус: Одобрено администрацией
Хотите видеть детали Раздачи пройдите авторизацию или регистрацию!

Спасибо за понимание...
Просьба отключить блокировщики рекламы на странице скриншотов по адресу: http://3.lostpic.net/, этим Вы поможете существованию проекта. Заранее спасибо!
x264 [info]: frame I:653   Avg QP:18.08  size:129005
x264 [info]: frame P:23113 Avg QP:19.62  size: 83130
x264 [info]: frame B:94015 Avg QP:21.19  size: 33677
x264 [info]: consecutive B-frames:  0.9%  0.8%  4.1% 18.7% 20.3% 45.4%  5.2%  1.1%  0.6%  1.9%  0.8%  0.3%

General
Unique ID                   : 98737152610253639415065423759867027268 (0x4A48157964A3617FE9D2B3AC183A9F44)
Complete name               : H:\HDFILMS\Волшебная лампа Аладдина (1966) BDRip 720p - KORSAR.mkv
Format                      : Matroska
Format version              : Version 4
File size                   : 5.17 GiB
Duration                    : 1 h 18 min
Overall bit rate            : 9 424 kb/s
Movie name                  : Волшебная лампа Аладдина (1966)_rip_by_Cthulhu
Encoded date                : UTC 2019-09-06 04:20:58
Writing application         : mkvmerge v33.1.0 ('Primrose') 64-bit
Writing library             : libebml v1.3.7 + libmatroska v1.5.0
Cover                       : Yes
Attachments                 : cover.jpg

Video
ID                          : 1
Format                      : AVC
Format/Info                 : Advanced Video Codec
Format profile              : High@L4.1
Format settings             : CABAC / 12 Ref Frames
Format settings, CABAC      : Yes
Format settings, Reference  : 12 frames
Codec ID                    : V_MPEG4/ISO/AVC
Duration                    : 1 h 18 min
Bit rate                    : 8 782 kb/s
Width                       : 1 278 pixels
Height                      : 520 pixels
Display aspect ratio        : 2.458
Frame rate mode             : Constant
Frame rate                  : 25.000 FPS
Color space                 : YUV
Chroma subsampling          : 4:2:0
Bit depth                   : 8 bits
Scan type                   : Progressive
Bits/(Pixel*Frame)          : 0.529
Stream size                 : 4.82 GiB (93%)
Writing library             : x264 core 152 r2851kMod ba24899
Encoding settings           : cabac=1 / ref=12 / deblock=1:-2:-2 / analyse=0x3:0x133 / me=umh / subme=11 / psy=1 / fade_compensate=0.00 / psy_rd=1.00:0.00 / mixed_ref=1 / me_range=48 / chroma_me=1 / trellis=2 / 8x8dct=1 / cqm=0 / deadzone=21,11 / fast_pskip=1 / chroma_qp_offset=-2 / threads=16 / lookahead_threads=4 / sliced_threads=0 / nr=0 / decimate=1 / interlaced=0 / bluray_compat=0 / constrained_intra=0 / bframes=11 / b_pyramid=2 / b_adapt=2 / b_bias=0 / direct=3 / weightb=1 / open_gop=0 / weightp=2 / keyint=250 / keyint_min=25 / scenecut=40 / intra_refresh=0 / rc_lookahead=60 / rc=crf / mbtree=0 / crf=18.0000 / qcomp=0.65 / qpmin=0 / qpmax=39 / qpstep=4 / vbv_maxrate=50000 / vbv_bufsize=62500 / crf_max=0.0 / nal_hrd=none / filler=0 / ip_ratio=1.40 / pb_ratio=1.30 / aq=2:1.00
Language                    : Russian
Default                     : Yes
Forced                      : No
Color range                 : Limited
Color primaries             : BT.709
Transfer characteristics    : BT.709
Matrix coefficients         : BT.709

Audio #1
ID                          : 2
Format                      : AC-3
Format/Info                 : Audio Coding 3
Commercial name             : Dolby Digital
Codec ID                    : A_AC3
Duration                    : 1 h 18 min
Bit rate mode               : Constant
Bit rate                    : 448 kb/s
Channel(s)                  : 6 channels
Channel layout              : L R C LFE Ls Rs
Sampling rate               : 48.0 kHz
Frame rate                  : 31.250 FPS (1536 SPF)
Bit depth                   : 16 bits
Compression mode            : Lossy
Stream size                 : 252 MiB (5%)
Language                    : Russian
Service kind                : Complete Main
Default                     : Yes
Forced                      : No

Audio #2
ID                          : 3
Format                      : AC-3
Format/Info                 : Audio Coding 3
Commercial name             : Dolby Digital
Codec ID                    : A_AC3
Duration                    : 1 h 18 min
Bit rate mode               : Constant
Bit rate                    : 192 kb/s
Channel(s)                  : 2 channels
Channel layout              : L R
Sampling rate               : 48.0 kHz
Frame rate                  : 31.250 FPS (1536 SPF)
Bit depth                   : 16 bits
Compression mode            : Lossy
Stream size                 : 108 MiB (2%)
Language                    : Russian
Service kind                : Complete Main
Default                     : No
Forced                      : No

Menu
00:00:00.000                : en:
00:02:12.159                : en:
00:08:55.760                : en:
00:18:29.840                : en:
00:28:03.760                : en:
00:35:49.680                : en:
00:48:42.320                : en:
00:58:43.840                : en:
01:09:06.560                : en:
01:18:31.200                : en:
https://img15.lostpic.net/2019/09/06/a5d5532707b5fb8621faf6cbd783a700.th.png https://img15.lostpic.net/2019/09/06/486f26797146cfd0982ddd57a5f0d969.th.png https://img15.lostpic.net/2019/09/06/c035eafe1a0f1996bf2e2bbe81e5369e.th.png https://img16.lostpic.net/2019/09/06/88145327fdf12e103d86d0c999397816.th.png https://img15.lostpic.net/2019/09/06/8ebd36476c87931d3eda23c536577dd9.th.png https://img15.lostpic.net/2019/09/06/e46483aec724862c1cef83bd2be4f5b7.th.png  
http://korsar.tv/images/Banner-Korsar.gif http://korsar.tv/img/VKontakte.png  


Привет, гость
- Запомнить
Регистрация
Информация

Торрент трекер ExKinoRay.TV

Здесь вы можете скачать новые фильмы, сериалы, игры, музыку, софт и многое другое. Большая скорость скачивания на мультитрекерных раздачах. Всё абсолютно бесплатно.