Американка | 1997 | DVDRip (AVC) - KORSAR Одобрено администрацией

Участники
  • Раздают2
  • Качают0
  • Просмотров13
  • Скачали5
  • Комментариев0
  • Список файлов1
Залил раздачу
Поблагодарить
Характеристики
Вес1.51 GB (1,625,020,113)
Залит2020-03-22 14:15:22 Обновлено2020-03-22 14:17:45
Сетевая Нет
Чтобы скачать, необходимо авторизоваться или зарегистрироваться.
Статус: Одобрено администрацией
Хотите видеть детали Раздачи пройдите авторизацию или регистрацию!

Спасибо за понимание...
Просьба отключить блокировщики рекламы на странице скриншотов по адресу: http://3.lostpic.net/, этим Вы поможете существованию проекта. Заранее спасибо!
x264 [info]: frame I:734 Avg QP:17.19 size: 54943
x264 [info]: frame P:26975 Avg QP:19.05 size: 25783
x264 [info]: frame B:108111 Avg QP:21.07 size: 5802
x264 [info]: consecutive B-frames: 0.9% 0.8% 4.5% 16.7% 20.8% 53.4% 2.5% 0.2% 0.2% 0.1% 0.0%

General
Unique ID : 132834277946331593855524059182540531215 (0x63EEF38BEC05B3ED133E70054338260F)
Complete name : S:\FILMS\Американка (1997) DVDRip-AVC - KORSAR.mkv
Format : Matroska
Format version : Version 4 / Version 2
File size : 1.51 GiB
Duration : 1 h 30 min
Overall bit rate : 2 393 kb/s
Movie name : Американка (1997)_rip_by_Cthulhu
Encoded date : UTC 2019-09-17 15:28:45
Writing application : mkvmerge v37.0.0 ('Leave It') 64-bit
Writing library : libebml v1.3.9 + libmatroska v1.5.2
Cover : Yes
Attachments : cover3.jpg

Video
ID : 1
Format : AVC
Format/Info : Advanced Video Codec
Format profile : High@L4.1
Format settings : CABAC / 16 Ref Frames
Format settings, CABAC : Yes
Format settings, ReFrames : 16 frames
Codec ID : V_MPEG4/ISO/AVC
Duration : 1 h 30 min
Bit rate : 2 007 kb/s
Width : 692 pixels
Height : 478 pixels
Display aspect ratio : 3:2
Frame rate mode : Constant
Frame rate : 25.000 FPS
Color space : YUV
Chroma subsampling : 4:2:0
Bit depth : 8 bits
Scan type : Progressive
Bits/(Pixel*Frame) : 0.243
Stream size : 1.27 GiB (84%)
Writing library : x264 core 152 r2851kMod ba24899
Encoding settings : cabac=1 / ref=16 / deblock=1:-2:-1 / analyse=0x3:0x113 / me=umh / subme=11 / psy=1 / fade_compensate=0.00 / psy_rd=1.02:0.00 / mixed_ref=1 / me_range=48 / chroma_me=1 / trellis=2 / 8x8dct=1 / cqm=0 / deadzone=21,11 / fast_pskip=1 / chroma_qp_offset=-2 / threads=15 / lookahead_threads=3 / sliced_threads=0 / nr=0 / decimate=1 / interlaced=0 / bluray_compat=0 / constrained_intra=0 / bframes=10 / b_pyramid=2 / b_adapt=2 / b_bias=0 / direct=1 / weightb=1 / open_gop=0 / weightp=2 / keyint=250 / keyint_min=25 / scenecut=40 / intra_refresh=0 / rc_lookahead=60 / rc=crf / mbtree=0 / crf=18.0000 / qcomp=0.63 / qpmin=0 / qpmax=39 / qpstep=4 / vbv_maxrate=50000 / vbv_bufsize=62500 / crf_max=0.0 / nal_hrd=none / filler=0 / ip_ratio=1.40 / pb_ratio=1.30 / aq=2:1.00
Language : Russian
Default : Yes
Forced : No
Color range : Limited
Color primaries : BT.601 PAL
Transfer characteristics : BT.470 System B/G
Matrix coefficients : BT.470 System B/G

Audio
ID : 2
Format : AC-3
Format/Info : Audio Coding 3
Commercial name : Dolby Digital
Codec ID : A_AC3
Duration : 1 h 30 min
Bit rate mode : Constant
Bit rate : 384 kb/s
Channel(s) : 6 channels
Channel layout : L R C LFE Ls Rs
Sampling rate : 48.0 kHz
Frame rate : 31.250 FPS (1536 SPF)
Bit depth : 16 bits
Compression mode : Lossy
Delay relative to video : 1 s 998 ms
Stream size : 249 MiB (16%)
Language : Russian
Service kind : Complete Main
Default : Yes
Forced : No

Menu
00:00:00.000 : en:Chapter 1
00:00:34.120 : en:Chapter 2
00:07:23.920 : en:Chapter 3
00:17:01.120 : en:Chapter 4
00:23:46.720 : en:Chapter 5
00:30:50.920 : en:Chapter 6
00:39:17.920 : en:Chapter 7
00:49:20.920 : en:Chapter 8
00:58:07.120 : en:Chapter 9
01:07:58.720 : en:Chapter 10
01:16:34.120 : en:Chapter 11
01:23:51.520 : en:Chapter 12
01:28:13.120 : en:Chapter 13
01:30:31.720 : en:Chapter 14
https://img16.lostpic.net/2019/09/17/cc5d6dc07a454a77e5bccbbc80086a66.th.png https://img15.lostpic.net/2019/09/17/b64dbdd7c728a70c69623269cf468f34.th.png https://img16.lostpic.net/2019/09/17/e7f97b969ed51c0178198c17207f7aa7.th.png https://img16.lostpic.net/2019/09/17/246ae925ee5e74b73efc5d20705399a8.th.png https://img15.lostpic.net/2019/09/17/1ef8c4fc02869b91f6a872f1c137971c.th.png https://img16.lostpic.net/2019/09/17/780df705439db1e98f810228555417d6.th.png  
http://korsar.tv/images/Banner-Korsar.gif http://korsar.tv/img/VKontakte.png  


Привет, гость
- Запомнить
Регистрация
Информация

Торрент трекер ExKinoRay.TV

Здесь вы можете скачать новые фильмы, сериалы, игры, музыку, софт и многое другое. Большая скорость скачивания на мультитрекерных раздачах. Всё абсолютно бесплатно.