Ночные сестры | 2007 | DVDRip (AVC) - KORSAR Одобрено администрацией

Участники
  • Раздают6
  • Качают0
  • Просмотров66
  • Скачали5
  • Комментариев0
  • Список файлов1
Залил раздачу
Поблагодарить
Характеристики
Вес2.11 GB (2,267,816,526)
Залит2020-03-22 14:18:38 Обновлено2020-03-22 14:21:53
Сетевая Нет
Чтобы скачать, необходимо авторизоваться или зарегистрироваться.
Статус: Одобрено администрацией
Хотите видеть детали Раздачи пройдите авторизацию или регистрацию!

Спасибо за понимание...
Просьба отключить блокировщики рекламы на странице скриншотов по адресу: http://3.lostpic.net/, этим Вы поможете существованию проекта. Заранее спасибо!
x264 [info]: frame I:1030 Avg QP:17.51 size: 74587
x264 [info]: frame P:31754 Avg QP:18.96 size: 31413
x264 [info]: frame B:109906 Avg QP:21.25 size: 8355
x264 [info]: consecutive B-frames: 2.1% 2.2% 8.4% 22.3% 21.1% 39.4% 3.3% 0.4% 0.4% 0.2% 0.1% 0.0%

General
Unique ID : 122098044485655430750063439940003411866 (0x5BDB3A5E60F3483636435A13DF31B79A)
Complete name : S:\FILMS\Ночные сестры (2007) DVDRip-AVC - KORSAR.mkv
Format : Matroska
Format version : Version 4 / Version 2
File size : 2.11 GiB
Duration : 1 h 35 min
Overall bit rate : 3 179 kb/s
Movie name : Ночные сестры (2007)_rip_by_Cthulhu
Encoded date : UTC 2019-09-17 19:45:48
Writing application : mkvmerge v37.0.0 ('Leave It') 64-bit
Writing library : libebml v1.3.9 + libmatroska v1.5.2
Cover : Yes
Attachments : cover4.jpg

Video
ID : 1
Format : AVC
Format/Info : Advanced Video Codec
Format profile : High@L4.1
Format settings : CABAC / 16 Ref Frames
Format settings, CABAC : Yes
Format settings, ReFrames : 16 frames
Codec ID : V_MPEG4/ISO/AVC
Duration : 1 h 35 min
Bit rate : 2 793 kb/s
Width : 716 pixels
Height : 550 pixels
Display aspect ratio : 1.85:1
Frame rate mode : Constant
Frame rate : 25.000 FPS
Color space : YUV
Chroma subsampling : 4:2:0
Bit depth : 8 bits
Scan type : Progressive
Bits/(Pixel*Frame) : 0.284
Stream size : 1.86 GiB (88%)
Writing library : x264 core 152 r2851kMod ba24899
Encoding settings : cabac=1 / ref=16 / deblock=1:-2:-2 / analyse=0x3:0x133 / me=umh / subme=11 / psy=1 / fade_compensate=0.00 / psy_rd=1.02:0.03 / mixed_ref=1 / me_range=48 / chroma_me=1 / trellis=2 / 8x8dct=1 / cqm=0 / deadzone=21,11 / fast_pskip=1 / chroma_qp_offset=-3 / threads=17 / lookahead_threads=4 / sliced_threads=0 / nr=0 / decimate=1 / interlaced=0 / bluray_compat=0 / constrained_intra=0 / bframes=11 / b_pyramid=2 / b_adapt=2 / b_bias=0 / direct=3 / weightb=1 / open_gop=0 / weightp=2 / keyint=250 / keyint_min=25 / scenecut=40 / intra_refresh=0 / rc_lookahead=60 / rc=crf / mbtree=0 / crf=18.0000 / qcomp=0.62 / qpmin=0 / qpmax=39 / qpstep=4 / vbv_maxrate=50000 / vbv_bufsize=62500 / crf_max=0.0 / nal_hrd=none / filler=0 / ip_ratio=1.40 / pb_ratio=1.30 / aq=3:1.00
Language : Russian
Default : Yes
Forced : No
Color range : Limited
Color primaries : BT.601 PAL
Transfer characteristics : BT.470 System B/G
Matrix coefficients : BT.470 System B/G

Audio
ID : 2
Format : AC-3
Format/Info : Audio Coding 3
Commercial name : Dolby Digital
Codec ID : A_AC3
Duration : 1 h 35 min
Bit rate mode : Constant
Bit rate : 384 kb/s
Channel(s) : 6 channels
Channel layout : L R C LFE Ls Rs
Sampling rate : 48.0 kHz
Frame rate : 31.250 FPS (1536 SPF)
Bit depth : 16 bits
Compression mode : Lossy
Stream size : 261 MiB (12%)
Language : Russian
Service kind : Complete Main
Default : Yes
Forced : No

Menu
00:00:00.000 : en:Chapter 1
00:04:45.280 : en:Chapter 2
00:10:53.080 : en:Chapter 3
00:17:40.720 : en:Chapter 4
00:25:50.200 : en:Chapter 5
00:40:19.120 : en:Chapter 6
00:45:34.840 : en:Chapter 7
00:56:48.040 : en:Chapter 8
01:03:42.160 : en:Chapter 9
01:13:01.360 : en:Chapter 10
01:23:58.360 : en:Chapter 11
01:33:06.040 : en:Chapter 12
01:35:06.520 : en:Chapter 13
01:35:07.000 : en:Chapter 14
https://img15.lostpic.net/2019/09/17/6388adc1bce592b0f3e7391210660e4d.th.png https://img16.lostpic.net/2019/09/17/a124a2a662607fdfd212a25ce0f91537.th.png https://img15.lostpic.net/2019/09/17/e381952dfaab648e8da62b6512480050.th.png https://img16.lostpic.net/2019/09/17/4319b9cfbd637d35b991e30d3911b6d6.th.png https://img15.lostpic.net/2019/09/17/d73c40342af74721d965d7cfc58f27fc.th.png https://img16.lostpic.net/2019/09/17/40d15df7d07c3c3c925d73a4c03b11e6.th.png https://img15.lostpic.net/2019/09/17/01e97fa48230ba8818418dae225b5686.th.png https://img16.lostpic.net/2019/09/17/5d7c6550a149920d09b2d29c96b13578.th.png  
http://korsar.tv/images/Banner-Korsar.gif http://korsar.tv/img/VKontakte.png  


Привет, гость
- Запомнить
Регистрация
Информация

Торрент трекер ExKinoRay.TV

Здесь вы можете скачать новые фильмы, сериалы, игры, музыку, софт и многое другое. Большая скорость скачивания на мультитрекерных раздачах. Всё абсолютно бесплатно.