Бумажный солдат | 2008 | DVDRip (AVC) - KORSAR Одобрено администрацией

Участники
  • Раздают2
  • Качают0
  • Просмотров42
  • Скачали4
  • Комментариев0
  • Список файлов1
Залил раздачу
Поблагодарить
Никто
Характеристики
Вес1.84 GB (1,973,253,369)
Залит2020-03-22 14:19:19 Обновлено2020-03-22 14:26:01
Сетевая Нет
Чтобы скачать, необходимо авторизоваться или зарегистрироваться.
Статус: Одобрено администрацией
Хотите видеть детали Раздачи пройдите авторизацию или регистрацию!

Спасибо за понимание...
Просьба отключить блокировщики рекламы на странице скриншотов по адресу: http://3.lostpic.net/, этим Вы поможете существованию проекта. Заранее спасибо!
x264 [info]: frame I:718 Avg QP:15.85 size: 41881
x264 [info]: frame P:37911 Avg QP:17.75 size: 19475
x264 [info]: frame B:131687 Avg QP:19.76 size: 6241
x264 [info]: consecutive B-frames: 1.3% 1.8% 9.4% 26.8% 24.9% 31.9% 1.0% 0.2% 0.2% 0.6% 0.1% 0.2% 0.1% 0.3% 0.1% 0.3% 0.9%

General
Unique ID : 156771446032148428251405225836239841847 (0x75F1150D469074F38BE06BAD2D6EEA37)
Complete name : S:\FILMS\Бумажный солдат (2008) DVDRip-AVC - KORSAR.mkv
Format : Matroska
Format version : Version 4 / Version 2
File size : 1.84 GiB
Duration : 1 h 53 min
Overall bit rate : 2 317 kb/s
Movie name : Бумажный солдат (2008)_rip_by_Cthulhu
Encoded date : UTC 2019-09-21 13:21:10
Writing application : mkvmerge v37.0.0 ('Leave It') 64-bit
Writing library : libebml v1.3.9 + libmatroska v1.5.2
Cover : Yes
Attachments : cover2.jpg

Video
ID : 1
Format : AVC
Format/Info : Advanced Video Codec
Format profile : High@L4.1
Format settings : CABAC / 16 Ref Frames
Format settings, CABAC : Yes
Format settings, ReFrames : 16 frames
Codec ID : V_MPEG4/ISO/AVC
Duration : 1 h 53 min
Bit rate : 1 867 kb/s
Width : 720 pixels
Height : 306 pixels
Display aspect ratio : 2.510
Frame rate mode : Constant
Frame rate : 25.000 FPS
Color space : YUV
Chroma subsampling : 4:2:0
Bit depth : 8 bits
Scan type : Progressive
Bits/(Pixel*Frame) : 0.339
Stream size : 1.48 GiB (81%)
Writing library : x264 core 152 r2851kMod ba24899
Encoding settings : cabac=1 / ref=16 / deblock=1:-2:-2 / analyse=0x3:0x133 / me=umh / subme=11 / psy=1 / fade_compensate=0.00 / psy_rd=1.01:0.03 / mixed_ref=1 / me_range=48 / chroma_me=1 / trellis=2 / 8x8dct=1 / cqm=0 / deadzone=21,11 / fast_pskip=1 / chroma_qp_offset=-3 / threads=10 / lookahead_threads=2 / sliced_threads=0 / nr=0 / decimate=1 / interlaced=0 / bluray_compat=0 / constrained_intra=0 / bframes=16 / b_pyramid=2 / b_adapt=2 / b_bias=0 / direct=3 / weightb=1 / open_gop=0 / weightp=2 / keyint=250 / keyint_min=25 / scenecut=40 / intra_refresh=0 / rc_lookahead=60 / rc=crf / mbtree=0 / crf=17.5000 / qcomp=0.65 / qpmin=0 / qpmax=39 / qpstep=4 / vbv_maxrate=50000 / vbv_bufsize=62500 / crf_max=0.0 / nal_hrd=none / filler=0 / ip_ratio=1.40 / pb_ratio=1.30 / aq=2:1.00
Language : Russian
Default : Yes
Forced : No
Color range : Limited
Color primaries : BT.601 PAL
Transfer characteristics : BT.470 System B/G
Matrix coefficients : BT.470 System B/G

Audio
ID : 2
Format : AC-3
Format/Info : Audio Coding 3
Commercial name : Dolby Digital
Codec ID : A_AC3
Duration : 1 h 53 min
Bit rate mode : Constant
Bit rate : 448 kb/s
Channel(s) : 6 channels
Channel layout : L R C LFE Ls Rs
Sampling rate : 48.0 kHz
Frame rate : 31.250 FPS (1536 SPF)
Bit depth : 16 bits
Compression mode : Lossy
Stream size : 364 MiB (19%)
Language : Russian
Service kind : Complete Main
Default : Yes
Forced : No

Menu
00:00:00.000 : en:Chapter 1
00:05:39.720 : en:Chapter 2
00:12:56.280 : en:Chapter 3
00:21:31.120 : en:Chapter 4
00:27:38.480 : en:Chapter 5
00:31:52.160 : en:Chapter 6
00:36:48.440 : en:Chapter 7
00:45:20.560 : en:Chapter 8
00:50:49.480 : en:Chapter 9
00:57:14.240 : en:Chapter 10
01:03:02.400 : en:Chapter 11
01:09:59.280 : en:Chapter 12
01:15:50.480 : en:Chapter 13
01:21:47.960 : en:Chapter 14
01:29:05.640 : en:Chapter 15
01:35:34.440 : en:Chapter 16
01:39:43.480 : en:Chapter 17
01:48:23.280 : en:Chapter 18
01:53:31.800 : en:Chapter 19
01:53:32.160 : en:Chapter 20
https://img15.lostpic.net/2019/09/21/31f6fe844bce6510ff074db2f4a1d269.th.png https://img16.lostpic.net/2019/09/21/55a65a2f978301a9487a979c930981c5.th.png https://img15.lostpic.net/2019/09/21/8057442bd7e150ba823d9e35cbef5aea.th.png https://img16.lostpic.net/2019/09/21/e4f329d8f64135d00c15d946fb1df872.th.png https://img15.lostpic.net/2019/09/21/de736c7587c9e61d8cbf0312a8789587.th.png https://img16.lostpic.net/2019/09/21/3c3cc6c7b50ab919593bff440d992da4.th.png https://img15.lostpic.net/2019/09/21/6c28dc2ec68fe80c8d64c5095e2aebe5.th.png https://img16.lostpic.net/2019/09/21/3884c7bcde2d06e79dee349d96e779df.th.png  
http://korsar.tv/images/Banner-Korsar.gif http://korsar.tv/img/VKontakte.png  


Привет, гость
- Запомнить
Регистрация
Информация

Торрент трекер ExKinoRay.TV

Здесь вы можете скачать новые фильмы, сериалы, игры, музыку, софт и многое другое. Большая скорость скачивания на мультитрекерных раздачах. Всё абсолютно бесплатно.