Большой приз | Stickmen | 2001 | DVDRip (AVC) | DUB, MVO - KORSAR Одобрено администрацией

Участники
  • Раздают2
  • Качают0
  • Просмотров14
  • Скачали2
  • Комментариев0
  • Список файлов1
Залил раздачу
Поблагодарить
Никто
Характеристики
Вес2.32 GB (2,490,921,594)
Залит2020-03-22 14:45:37 Обновлено2020-03-22 14:50:51
Сетевая Нет
Чтобы скачать, необходимо авторизоваться или зарегистрироваться.
Статус: Одобрено администрацией
Хотите видеть детали Раздачи пройдите авторизацию или регистрацию!

Спасибо за понимание...
Просьба отключить блокировщики рекламы на странице скриншотов по адресу: http://3.lostpic.net/, этим Вы поможете существованию проекта. Заранее спасибо!
x264 [info]: frame I:1100 Avg QP:16.68 size: 66210
x264 [info]: frame P:29233 Avg QP:18.30 size: 30813
x264 [info]: frame B:110572 Avg QP:20.57 size: 6775
x264 [info]: consecutive B-frames: 1.7% 1.5% 6.9% 14.3% 23.2% 47.2% 3.8% 0.3% 0.4% 0.6% 0.1%

General
Unique ID : 270838572813551095730014356291207238588 (0xCBC19C9B7ED4FBC33C0B2B96C53B13BC)
Complete name : S:\FILMS\Большой приз - Stickmen (2001) DVDRip-AVC - KORSAR.mkv
Format : Matroska
Format version : Version 4 / Version 2
File size : 2.32 GiB
Duration : 1 h 33 min
Overall bit rate : 3 536 kb/s
Movie name : Stickmen (2001)_rip_by_Cthulhu
Encoded date : UTC 2019-09-28 15:56:10
Writing application : mkvmerge v37.0.0 ('Leave It') 64-bit
Writing library : libebml v1.3.9 + libmatroska v1.5.2
Cover : Yes
Attachments : cover0.jpg

Video
ID : 1
Format : AVC
Format/Info : Advanced Video Codec
Format profile : High@L4.1
Format settings : CABAC / 16 Ref Frames
Format settings, CABAC : Yes
Format settings, ReFrames : 16 frames
Codec ID : V_MPEG4/ISO/AVC
Duration : 1 h 33 min
Bit rate : 2 445 kb/s
Width : 720 pixels
Height : 574 pixels
Display aspect ratio : 4:3
Frame rate mode : Constant
Frame rate : 25.000 FPS
Color space : YUV
Chroma subsampling : 4:2:0
Bit depth : 8 bits
Scan type : Progressive
Bits/(Pixel*Frame) : 0.237
Stream size : 1.60 GiB (69%)
Writing library : x264 core 152 r2851kMod ba24899
Encoding settings : cabac=1 / ref=16 / deblock=1:-2:-2 / analyse=0x3:0x133 / me=umh / subme=11 / psy=1 / fade_compensate=0.00 / psy_rd=1.00:0.03 / mixed_ref=1 / me_range=48 / chroma_me=1 / trellis=2 / 8x8dct=1 / cqm=0 / deadzone=21,11 / fast_pskip=1 / chroma_qp_offset=-3 / threads=18 / lookahead_threads=4 / sliced_threads=0 / nr=0 / decimate=1 / interlaced=0 / bluray_compat=0 / constrained_intra=0 / bframes=10 / b_pyramid=2 / b_adapt=2 / b_bias=0 / direct=3 / weightb=1 / open_gop=0 / weightp=2 / keyint=250 / keyint_min=25 / scenecut=40 / intra_refresh=0 / rc_lookahead=60 / rc=crf / mbtree=0 / crf=18.0000 / qcomp=0.62 / qpmin=0 / qpmax=39 / qpstep=4 / vbv_maxrate=50000 / vbv_bufsize=62500 / crf_max=0.0 / nal_hrd=none / filler=0 / ip_ratio=1.40 / pb_ratio=1.30 / aq=2:1.00
Language : English
Default : Yes
Forced : No
Color range : Limited
Color primaries : BT.601 PAL
Transfer characteristics : BT.470 System B/G
Matrix coefficients : BT.470 System B/G

Audio #1
ID : 2
Format : AC-3
Format/Info : Audio Coding 3
Commercial name : Dolby Digital
Codec ID : A_AC3
Duration : 1 h 33 min
Bit rate mode : Constant
Bit rate : 192 kb/s
Channel(s) : 2 channels
Channel layout : L R
Sampling rate : 48.0 kHz
Frame rate : 31.250 FPS (1536 SPF)
Bit depth : 16 bits
Compression mode : Lossy
Stream size : 129 MiB (5%)
Title : DUB
Language : Russian
Service kind : Complete Main
Default : Yes
Forced : No

Audio #2
ID : 3
Format : AC-3
Format/Info : Audio Coding 3
Commercial name : Dolby Digital
Codec ID : A_AC3
Duration : 1 h 33 min
Bit rate mode : Constant
Bit rate : 448 kb/s
Channel(s) : 6 channels
Channel layout : L R C LFE Ls Rs
Sampling rate : 48.0 kHz
Frame rate : 31.250 FPS (1536 SPF)
Bit depth : 16 bits
Compression mode : Lossy
Stream size : 301 MiB (13%)
Title : MVO
Language : Russian
Service kind : Complete Main
Default : No
Forced : No

Audio #3
ID : 4
Format : AC-3
Format/Info : Audio Coding 3
Commercial name : Dolby Digital
Codec ID : A_AC3
Duration : 1 h 33 min
Bit rate mode : Constant
Bit rate : 448 kb/s
Channel(s) : 6 channels
Channel layout : L R C LFE Ls Rs
Sampling rate : 48.0 kHz
Frame rate : 31.250 FPS (1536 SPF)
Bit depth : 16 bits
Compression mode : Lossy
Stream size : 301 MiB (13%)
Title : Original
Language : English
Service kind : Complete Main
Default : No
Forced : No

Menu
00:00:00.000 : en:Chapter 1
00:03:37.440 : en:Chapter 2
00:11:08.240 : en:Chapter 3
00:17:06.440 : en:Chapter 4
00:23:56.280 : en:Chapter 5
00:30:40.760 : en:Chapter 6
00:37:00.400 : en:Chapter 7
00:41:38.080 : en:Chapter 8
00:48:05.920 : en:Chapter 9
00:52:06.240 : en:Chapter 10
00:57:46.280 : en:Chapter 11
01:07:04.040 : en:Chapter 12
01:12:51.000 : en:Chapter 13
01:17:11.120 : en:Chapter 14
01:22:38.160 : en:Chapter 15
01:27:52.880 : en:Chapter 16
01:31:24.400 : en:Chapter 17
https://img16.lostpic.net/2019/09/28/20bf64d8f98e4f1ff228ff7dc9594a30.th.png https://img15.lostpic.net/2019/09/28/7df8e7d9656e913873c3f017d514fbe8.th.png https://img16.lostpic.net/2019/09/28/14f7fa5aa516058f314e6313f2176742.th.png https://img15.lostpic.net/2019/09/28/1feadc3a9591bd6e715d9cd5cc51f727.th.png https://img16.lostpic.net/2019/09/28/f21da243aaa7ab07fea0135e7c400953.th.png https://img15.lostpic.net/2019/09/28/fc05f122fb862d08045049e154bb0d59.th.png https://img16.lostpic.net/2019/09/28/f0359cea01b815d2c0dc957705f2e67b.th.png https://img15.lostpic.net/2019/09/28/a7db50bfc08325e2fb80e301b4653c26.th.png  
http://korsar.tv/images/Banner-Korsar.gif http://korsar.tv/img/VKontakte.png  


Привет, гость
- Запомнить
Регистрация
Информация

Торрент трекер ExKinoRay.TV

Здесь вы можете скачать новые фильмы, сериалы, игры, музыку, софт и многое другое. Большая скорость скачивания на мультитрекерных раздачах. Всё абсолютно бесплатно.