Золушка (Цветная версия) | 1947 | BDRip (720p) - KORSAR Одобрено администрацией

Участники
  • Раздают9
  • Качают0
  • Просмотров43
  • Скачали1
  • Комментариев0
  • Список файлов1
Залил раздачу
Поблагодарить
Никто
Характеристики
Вес3.87 GB (4,151,818,166)
Залит2020-03-22 14:46:23 Обновлено2020-03-22 14:57:51
Сетевая Нет
Чтобы скачать, необходимо авторизоваться или зарегистрироваться.
Статус: Одобрено администрацией
Хотите видеть детали Раздачи пройдите авторизацию или регистрацию!

Спасибо за понимание...
Просьба отключить блокировщики рекламы на странице скриншотов по адресу: http://3.lostpic.net/, этим Вы поможете существованию проекта. Заранее спасибо!
x264 [info]: frame I:643 Avg QP:15.75 size:140511
x264 [info]: frame P:23278 Avg QP:19.02 size: 59925
x264 [info]: frame B:93824 Avg QP:20.48 size: 22748
x264 [info]: consecutive B-frames: 0.8% 0.9% 4.1% 19.4% 16.5% 52.8% 3.6% 0.9% 0.6% 0.3% 0.1%

General
Unique ID : 333003347372712439765018743650804442 (0x402255271DF80C1EE45282E34E62DA)
Complete name : H:\HDFILMS\Золушка. Цветная версия (1947) BDRip 720p - KORSAR.mkv
Format : Matroska
Format version : Version 4 / Version 2
File size : 3.87 GiB
Duration : 1 h 21 min
Overall bit rate : 6 763 kb/s
Movie name : Золушка (1947)_rip_by_Cthulhu
Encoded date : UTC 2019-10-05 20:52:48
Writing application : mkvmerge v37.0.0 ('Leave It') 64-bit
Writing library : libebml v1.3.9 + libmatroska v1.5.2
Cover : Yes
Attachments : cover.png

Video
ID : 1
Format : AVC
Format/Info : Advanced Video Codec
Format profile : High@L4.1
Format settings : CABAC / 11 Ref Frames
Format settings, CABAC : Yes
Format settings, ReFrames : 11 frames
Codec ID : V_MPEG4/ISO/AVC
Duration : 1 h 21 min
Bit rate : 5 900 kb/s
Width : 990 pixels
Height : 720 pixels
Display aspect ratio : 1.375
Frame rate mode : Constant
Frame rate : 23.976 (24000/1001) FPS
Color space : YUV
Chroma subsampling : 4:2:0
Bit depth : 8 bits
Scan type : Progressive
Bits/(Pixel*Frame) : 0.345
Stream size : 3.37 GiB (87%)
Writing library : x264 core 152 r2851kMod ba24899
Encoding settings : cabac=1 / ref=11 / deblock=1:-2:-2 / analyse=0x3:0x133 / me=umh / subme=11 / psy=1 / fade_compensate=0.00 / psy_rd=1.05:0.00 / mixed_ref=1 / me_range=48 / chroma_me=1 / trellis=2 / 8x8dct=1 / cqm=0 / deadzone=21,11 / fast_pskip=1 / chroma_qp_offset=-2 / threads=22 / lookahead_threads=5 / sliced_threads=0 / nr=0 / decimate=1 / interlaced=0 / bluray_compat=0 / constrained_intra=0 / bframes=10 / b_pyramid=2 / b_adapt=2 / b_bias=0 / direct=3 / weightb=1 / open_gop=0 / weightp=2 / keyint=240 / keyint_min=23 / scenecut=40 / intra_refresh=0 / rc_lookahead=60 / rc=2pass / mbtree=0 / bitrate=5900 / ratetol=1.0 / qcomp=0.60 / qpmin=0 / qpmax=39 / qpstep=4 / cplxblur=20.0 / qblur=0.5 / vbv_maxrate=50000 / vbv_bufsize=62500 / nal_hrd=none / filler=0 / ip_ratio=1.40 / pb_ratio=1.30 / aq=3:1.00
Language : Russian
Default : Yes
Forced : No
Color range : Limited
Color primaries : BT.709
Transfer characteristics : BT.709
Matrix coefficients : BT.709

Audio #1
ID : 2
Format : AC-3
Format/Info : Audio Coding 3
Commercial name : Dolby Digital
Codec ID : A_AC3
Duration : 1 h 21 min
Bit rate mode : Constant
Bit rate : 640 kb/s
Channel(s) : 6 channels
Channel layout : L R C LFE Ls Rs
Sampling rate : 48.0 kHz
Frame rate : 31.250 FPS (1536 SPF)
Bit depth : 16 bits
Compression mode : Lossy
Stream size : 375 MiB (9%)
Title : AC3 5.1
Language : Russian
Service kind : Complete Main
Default : Yes
Forced : No

Audio #2
ID : 3
Format : AC-3
Format/Info : Audio Coding 3
Commercial name : Dolby Digital
Codec ID : A_AC3
Duration : 1 h 21 min
Bit rate mode : Constant
Bit rate : 224 kb/s
Channel(s) : 1 channel
Channel layout : C
Sampling rate : 48.0 kHz
Frame rate : 31.250 FPS (1536 SPF)
Bit depth : 16 bits
Compression mode : Lossy
Stream size : 131 MiB (3%)
Title : AC3 1.0
Language : Russian
Service kind : Complete Main
Default : No
Forced : No

Menu
00:00:00.000 : en:
00:07:04.424 : en:
00:12:51.771 : en:
00:21:12.854 : en:
00:30:46.553 : en:
00:37:25.451 : en:
00:43:27.605 : en:
00:47:19.837 : en:
00:50:28.025 : en:
01:00:26.622 : en:
01:08:01.077 : en:
01:13:26.402 : en:
01:21:50.822 : en:
https://img16.lostpic.net/2019/10/06/4f1542aadbe86bdee29a5498ab9265a5.th.png https://img15.lostpic.net/2019/10/06/c559eac8e3fd6f176bd76ec164219d87.th.png https://img16.lostpic.net/2019/10/06/bd260792f28782fcc59e6ae25ca9991a.th.png https://img15.lostpic.net/2019/10/06/e38af072ef4f8596b2d97b63be5b465d.th.png https://img16.lostpic.net/2019/10/06/ef784dec94e58d8c11fee65ed1c6e688.th.png https://img15.lostpic.net/2019/10/06/d176f481bec0399ec6098eb3ce69d1b0.th.png https://img16.lostpic.net/2019/10/06/c769d5f7bc2a8f242b6a8f0ad4a6e1d3.th.png https://img15.lostpic.net/2019/10/06/84dc20a7d7411180f36f072a65cf7382.th.png  
http://korsar.tv/images/Banner-Korsar.gif http://korsar.tv/img/VKontakte.png  


Привет, гость
- Запомнить
Регистрация
Информация

Торрент трекер ExKinoRay.TV

Здесь вы можете скачать новые фильмы, сериалы, игры, музыку, софт и многое другое. Большая скорость скачивания на мультитрекерных раздачах. Всё абсолютно бесплатно.