Необыкновенный концерт | 1972 | DVDRip (AVC) - KORSAR Одобрено администрацией

Участники
  • Раздают0
  • Качают0
  • Просмотров42
  • Скачали3
  • Комментариев0
  • Список файлов1
Залил раздачу
Поблагодарить
Никто
Характеристики
Вес2.00 GB (2,146,660,295)
Залит2020-03-23 07:53:55 Обновлено2020-03-23 14:10:44
Сетевая Нет
Чтобы скачать, необходимо авторизоваться или зарегистрироваться.
Статус: Одобрено администрацией
Хотите видеть детали Раздачи пройдите авторизацию или регистрацию!

Спасибо за понимание...
Просьба отключить блокировщики рекламы на странице скриншотов по адресу: http://3.lostpic.net/, этим Вы поможете существованию проекта. Заранее спасибо!
x264 [info]: frame I:665   Avg QP:17.40  size: 75955x264 [info]: frame P:33090 Avg QP:19.20  size: 31691x264 [info]: frame B:101745 Avg QP:21.39  size:  6020x264 [info]: consecutive B-frames:  1.8%  3.1% 14.2% 32.1% 24.1% 22.0%  1.8%  0.6%  0.2%  0.2%  0.0%Общее
Уникальный идентификатор                 : 176850791987527761054232580665170190279 (0x850C393DB38B4AC3A6056EFAB8CFDFC7)
Полное имя                               : D:\Необыкновенный концерт_1972-DVDRip-AVC_KORSAR.mkv
Формат                                   : Matroska
Версия формата                           : Version 2
Размер файла                             : 2,00 Гбайт
Продолжительность                        : 1 ч. 30 м.
Общий поток                              : 3169 Кбит/сек
Название фильма                          : Необыкновенный концерт_1972-DVDRip-AVC_KORSAR
Дата кодирования                         : UTC 2020-01-18 12:14:04
Программа кодирования                    : mkvmerge v5.8.0 ('No Sleep / Pillow') built on Sep  2 2012 15:37:04
Библиотека кодирования                   : libebml v1.2.3 + libmatroska v1.3.0

Видео
Идентификатор                            : 1
Формат                                   : AVC
Формат/Информация                        : Advanced Video Codec
Профиль формата                          : High@L4.1
Настройки формата                        : CABAC / 16 Ref Frames
Параметр CABAC формата                   : Да
Параметр RefFrames формата               : 16 кадров
Идентификатор кодека                     : V_MPEG4/ISO/AVC
Продолжительность                        : 1 ч. 30 м.
Битрейт                                  : 2465 Кбит/сек
Ширина                                   : 684 пикселя
Высота                                   : 574 пикселя
Соотношение сторон                       : 1,270
Соотношение сторон в оригинале           : 1,271
Режим частоты кадров                     : Постоянный
Частота кадров                           : 25,000 кадров/сек
Цветовое пространство                    : YUV
Субдискретизация насыщенности            : 4:2:0
Битовая глубина                          : 8 бит
Тип развёртки                            : Прогрессивная
Бит/(Пиксели*Кадры)                      : 0.251
Размер потока                            : 1,56 Гбайт (78%)
Библиотека кодирования                   : x264 core 152 r2851kMod ba24899
Настройки программы                      : cabac=1 / ref=16 / deblock=1:-1:-1 / analyse=0x3:0x133 / me=umh / subme=10 / psy=1 / fade_compensate=0.00 / psy_rd=1.05:0.10 / mixed_ref=1 / me_range=40 / chroma_me=1 / trellis=2 / 8x8dct=1 / cqm=0 / deadzone=21,11 / fast_pskip=1 / chroma_qp_offset=-3 / threads=12 / lookahead_threads=3 / sliced_threads=0 / nr=0 / decimate=1 / interlaced=0 / bluray_compat=0 / constrained_intra=0 / bframes=10 / b_pyramid=2 / b_adapt=2 / b_bias=0 / direct=1 / weightb=1 / open_gop=0 / weightp=2 / keyint=250 / keyint_min=25 / scenecut=40 / intra_refresh=0 / rc=crf / mbtree=0 / crf=16.7000 / qcomp=0.63 / qpmin=0 / qpmax=33 / qpstep=4 / ip_ratio=1.40 / pb_ratio=1.30 / aq=2:0.80
Язык                                     : English
Default                                  : Да
Forced                                   : Нет
Цветовой диапазон                        : Limited
Основные цвета                           : BT.601 PAL
Характеристики трансфера                 : BT.470 System B/G
Коэффициенты матрицы                     : BT.470 System B/G

Аудио #1
Идентификатор                            : 2
Формат                                   : AC-3
Формат/Информация                        : Audio Coding 3
Коммерческое название                    : Dolby Digital
Идентификатор кодека                     : A_AC3
Продолжительность                        : 1 ч. 30 м.
Вид битрейта                             : Постоянный
Битрейт                                  : 448 Кбит/сек
Каналы                                   : 6 каналов
ChannelLayout                            : L R C LFE Ls Rs
Частота                                  : 48,0 КГц
Частота кадров                           : 31,250 кадров/сек (1536 SPF)
Метод сжатия                             : С потерями
Размер потока                            : 289 Мбайт (14%)
Язык                                     : Russian
ServiceKind/String                       : Music and Effects
Default                                  : Да
Forced                                   : Нет

Аудио #2
Идентификатор                            : 3
Формат                                   : AC-3
Формат/Информация                        : Audio Coding 3
Коммерческое название                    : Dolby Digital
Идентификатор кодека                     : A_AC3
Продолжительность                        : 1 ч. 30 м.
Вид битрейта                             : Постоянный
Битрейт                                  : 192 Кбит/сек
Каналы                                   : 2 канала
ChannelLayout                            : L R
Частота                                  : 48,0 КГц
Частота кадров                           : 31,250 кадров/сек (1536 SPF)
Метод сжатия                             : С потерями
Размер потока                            : 124 Мбайт (6%)
Язык                                     : Russian
ServiceKind/String                       : Complete Main
Default                                  : Нет
Forced                                   : Нет

Меню
00:00:00.000                             : en:Chapter 1
00:00:00.600                             : en:Chapter 2
00:00:01.200                             : en:Chapter 3
00:07:56.400                             : en:Chapter 4
00:13:16.160                             : en:Chapter 5
00:19:35.960                             : en:Chapter 6
00:23:01.760                             : en:Chapter 7
00:27:21.560                             : en:Chapter 8
00:30:47.960                             : en:Chapter 9
00:33:59.360                             : en:Chapter 10
00:38:04.160                             : en:Chapter 11
00:50:53.640                             : en:Chapter 12
00:57:42.120                             : en:Chapter 13
01:04:33.720                             : en:Chapter 14
01:07:43.720                             : en:Chapter 15
01:12:58.080                             : en:Chapter 16
01:16:52.080                             : en:Chapter 17
01:22:20.280                             : en:Chapter 18
01:27:59.520                             : en:Chapter 19
01:30:15.800                             : en:Chapter 20
01:30:16.400                             : en:Chapter 21
01:30:17.000                             : en:Chapter 22
01:30:17.600                             : en:Chapter 23
01:30:18.200                             : en:Chapter 24
01:30:18.800                             : en:Chapter 25
01:30:19.400                             : en:Chapter 26

https://img16.lostpic.net/2020/01/18/54ac41431c55925729c22540ff8a65d8.th.png https://img15.lostpic.net/2020/01/18/f587c8c0e10ac36398bd64d80b2c644f.th.png https://img16.lostpic.net/2020/01/18/bda0a560c81c2014bc6e6bedb7095df2.th.png https://img15.lostpic.net/2020/01/18/9b7ab71a3e96dfd31194982f08458e11.th.png https://img16.lostpic.net/2020/01/18/9ed00817cf1db1df87f40d23872e9be0.th.png https://img15.lostpic.net/2020/01/18/8e68fc148e6b9d0dc0d8788205269605.th.png https://img16.lostpic.net/2020/01/18/ef7c15ce7bde0af1d4dfa9aa09cfe018.th.png https://img15.lostpic.net/2020/01/18/0329891e5e096053a63ff0e3ca10de4f.th.png https://img16.lostpic.net/2020/01/18/c081b1d4607e980b111dbcf755d80b8d.th.png  
http://korsar.tv/images/Banner-Korsar.gif http://korsar.tv/img/VKontakte.png  


Привет, гость
- Запомнить
Регистрация
Информация

Торрент трекер ExKinoRay.TV

Здесь вы можете скачать новые фильмы, сериалы, игры, музыку, софт и многое другое. Большая скорость скачивания на мультитрекерных раздачах. Всё абсолютно бесплатно.