Комиссия по расследованию | 1978 | SATRip (AVC) - KORSAR Одобрено администрацией

Участники
  • Раздают2
  • Качают0
  • Просмотров48
  • Скачали2
  • Комментариев0
  • Список файлов1
Залил раздачу
Поблагодарить
Характеристики
Вес1.99 GB (2,137,290,026)
Залит2020-03-23 23:13:59 Обновлено2020-03-23 23:50:13
Сетевая Нет
Чтобы скачать, необходимо авторизоваться или зарегистрироваться.
Статус: Одобрено администрацией
Хотите видеть детали Раздачи пройдите авторизацию или регистрацию!

Спасибо за понимание...
Просьба отключить блокировщики рекламы на странице скриншотов по адресу: http://3.lostpic.net/, этим Вы поможете существованию проекта. Заранее спасибо!
x264 [info]: frame I:701   Avg QP:17.86  size: 63955
x264 [info]: frame P:28135 Avg QP:19.40  size: 37723
x264 [info]: frame B:91796 Avg QP:21.19  size:  9959
x264 [info]: consecutive B-frames:  3.5%  1.3%  6.0% 22.7% 29.2% 36.0%  1.0%  0.2%  0.0%

General
Unique ID                   : 100056602097999257614200611443406635232 (0x4B46335B4515947480062D41259980E0)
Complete name               : S:\FILMS\Комиссия по расследованию (1978) SATRip-AVC - KORSAR.mkv
Format                      : Matroska
Format version              : Version 4 / Version 2
File size                   : 1.99 GiB
Duration                    : 1 h 20 min
Overall bit rate            : 3 543 kb/s
Movie name                  : Комиссия по расследованию (1978)_rip_by_Cthulhu
Encoded date                : UTC 2019-10-12 20:28:03
Writing application         : mkvmerge v37.0.0 ('Leave It') 64-bit
Writing library             : libebml v1.3.9 + libmatroska v1.5.2
Cover                       : Yes
Attachments                 : cover7.jpg

Video
ID                          : 1
Format                      : AVC
Format/Info                 : Advanced Video Codec
Format profile              : High@L4.1
Format settings             : CABAC / 16 Ref Frames
Format settings, CABAC      : Yes
Format settings, ReFrames   : 16 frames
Codec ID                    : V_MPEG4/ISO/AVC
Duration                    : 1 h 20 min
Bit rate                    : 3 350 kb/s
Width                       : 696 pixels
Height                      : 384 pixels
Display aspect ratio        : 1.932
Original display aspect rat : 1.933
Frame rate mode             : Constant
Frame rate                  : 25.000 FPS
Color space                 : YUV
Chroma subsampling          : 4:2:0
Bit depth                   : 8 bits
Scan type                   : Progressive
Bits/(Pixel*Frame)          : 0.501
Stream size                 : 1.88 GiB (95%)
Writing library             : x264 core 152 r2851kMod ba24899
Encoding settings           : cabac=1 / ref=16 / deblock=1:-1:-1 / analyse=0x3:0x133 / me=umh / subme=11 / psy=1 / fade_compensate=0.00 / psy_rd=1.00:0.05 / mixed_ref=1 / me_range=48 / chroma_me=1 / trellis=2 / 8x8dct=1 / cqm=0 / deadzone=21,11 / fast_pskip=1 / chroma_qp_offset=-3 / threads=12 / lookahead_threads=2 / sliced_threads=0 / nr=0 / decimate=1 / interlaced=0 / bluray_compat=0 / constrained_intra=0 / bframes=8 / b_pyramid=2 / b_adapt=2 / b_bias=0 / direct=3 / weightb=1 / open_gop=0 / weightp=2 / keyint=240 / keyint_min=23 / scenecut=40 / intra_refresh=0 / rc_lookahead=60 / rc=crf / mbtree=0 / crf=17.0000 / qcomp=0.62 / qpmin=0 / qpmax=39 / qpstep=4 / vbv_maxrate=50000 / vbv_bufsize=62500 / crf_max=0.0 / nal_hrd=none / filler=0 / ip_ratio=1.40 / pb_ratio=1.30 / aq=3:0.80
Language                    : Russian
Default                     : Yes
Forced                      : No
Color range                 : Limited
Color primaries             : BT.601 PAL
Transfer characteristics    : BT.470 System B/G
Matrix coefficients         : BT.470 System B/G

Audio
ID                          : 2
Format                      : MPEG Audio
Format version              : Version 1
Format profile              : Layer 2
Format settings             : Intensity Stereo + MS Stereo
Codec ID                    : A_MPEG/L2
Codec ID/Hint               : MP2
Duration                    : 1 h 20 min
Bit rate mode               : Constant
Bit rate                    : 192 kb/s
Channel(s)                  : 1 channel
Sampling rate               : 48.0 kHz
Frame rate                  : 41.667 FPS (1152 SPF)
Compression mode            : Lossy
Stream size                 : 110 MiB (5%)
Language                    : Russian
Default                     : Yes
Forced                      : No
https://img15.lostpic.net/2019/10/13/5270a9db49121d2abdbebb67dae840db.th.png https://img16.lostpic.net/2019/10/13/05040a1e834d1bc83b9e5dcdf6be6a11.th.png https://img15.lostpic.net/2019/10/13/c6a9927481c597a39e93a5c4d8efad2c.th.png https://img16.lostpic.net/2019/10/13/4ceda2344fc02d6f6e7db839f3d1ea1e.th.png https://img15.lostpic.net/2019/10/13/ca9b2e882950767722a0026b647f4dd3.th.png https://img16.lostpic.net/2019/10/13/2b7817d9b3ab0a5e6b045744c89549ab.th.png https://img15.lostpic.net/2019/10/13/1dfcdcceb71013010f34e5d5c5b25a7b.th.png https://img16.lostpic.net/2019/10/13/58eba900cc05e36a05d0abe00ac21d29.th.png  
http://korsar.tv/images/Banner-Korsar.gif http://korsar.tv/img/VKontakte.png  


Привет, гость
- Запомнить
Регистрация
Информация

Торрент трекер ExKinoRay.TV

Здесь вы можете скачать новые фильмы, сериалы, игры, музыку, софт и многое другое. Большая скорость скачивания на мультитрекерных раздачах. Всё абсолютно бесплатно.