Одержимость | Whiplash | 2014 | HEVC | BDRip (1080p) | MVO, AVO | US Transfer - KORSAR Одобрено администрацией

Участники
  • Раздают19
  • Качают2
  • Просмотров27
  • Скачали2
  • Комментариев0
  • Список файлов1
Залил раздачу
Поблагодарить
Характеристики
Вес7.07 GB (7,588,674,433)
Залит2020-03-23 23:15:33 Обновлено2020-03-24 05:46:26
Сетевая Да
Чтобы скачать, необходимо авторизоваться или зарегистрироваться.
Статус: Одобрено администрацией
Хотите видеть детали Раздачи пройдите авторизацию или регистрацию!

Спасибо за понимание...
Просьба отключить блокировщики рекламы на странице скриншотов по адресу: http://3.lostpic.net/, этим Вы поможете существованию проекта. Заранее спасибо!
Релиз от KORSAR
Автор рипа: Cthulhu

Видео: HEVC, 1920x800, 6274 Кбит/сек, 23.976 кадр/сек, 10 бит
Звук:
Аудио1: Русская, AC3 640 Кбит/сек, 6 канала(ов),16bit 48,0 КГц MVO (BD RUS)
Аудио2: Русская, AC3 640 Кбит/сек, 6 канала(ов),16bit 48,0 КГц AVO (Дасевич)
Аудио3: Русская, AC3 640 Кбит/сек, 6 канала(ов),16bit 48,0 КГц AVO (Матвеев)
Аудио4: Русская, AC3 640 Кбит/сек, 6 канала(ов),16bit 48,0 КГц AVO (Немахов)
Аудио5: English, AC3 640 Кбит/сек, 6 канала(ов),16bit 48,0 КГц Original
Субтитры: Русские (2 вида), English
Навигация по главам: Есть

x265 [info]: frame I:   1382, Avg QP:17.58  kb/s: 22504.15
x265 [info]: frame P:  23993, Avg QP:19.22  kb/s: 13914.31
x265 [info]: frame B: 128201, Avg QP:21.50  kb/s: 4668.30
x265 [info]: consecutive B-frames: 8.7% 3.7% 4.5% 16.7% 7.3% 14.3% 5.2% 29.3% 1.6% 1.4% 0.7% 6.2% 0.3%

General
Unique ID                   : 48865657232979814030040741639284136813 (0x24C32EE9959E87AB0A93A06ECA911B6D)
Complete name               : H:\HEVC4\Одержимость - Whiplash (2014) US Transfer BDRip-HEVC 1080p - KORSAR.mkv
Format                      : Matroska
Format version              : Version 4 / Version 2
File size                   : 7.07 GiB
Duration                    : 1 h 46 min
Overall bit rate            : 9 478 kb/s
Movie name                  : Whiplash (2014)_rip_by_Cthulhu
Encoded date                : UTC 2019-10-30 09:11:55
Writing application         : mkvmerge v37.0.0 ('Leave It') 64-bit
Writing library             : libebml v1.3.9 + libmatroska v1.5.2
Cover                       : Yes
Attachments                 : cover6.jpg

Video
ID                          : 1
Format                      : HEVC
Format/Info                 : High Efficiency Video Coding
Format profile              : Main 10@L4.1@High
Codec ID                    : V_MPEGH/ISO/HEVC
Duration                    : 1 h 46 min
Bit rate                    : 6 274 kb/s
Width                       : 1 920 pixels
Height                      : 800 pixels
Display aspect ratio        : 2.40:1
Frame rate mode             : Constant
Frame rate                  : 23.976 (24000/1001) FPS
Color space                 : YUV
Chroma subsampling          : 4:2:0
Bit depth                   : 10 bits
Bits/(Pixel*Frame)          : 0.170
Stream size                 : 4.68 GiB (66%)
Writing library             : x265 3.2+5-a3a088a7262f:[Windows][GCC 9.2.0][64 bit] 10bit
Encoding settings           : cpuid=1111039 / frame-threads=4 / numa-pools=16 / wpp / no-pmode / no-pme / no-psnr / no-ssim / log-level=2 / input-csp=1 / input-res=1920x800 / interlace=0 / total-frames=153576 / level-idc=41 / high-tier=1 / uhd-bd=0 / ref=5 / no-allow-non-conformance / no-repeat-headers / annexb / no-aud / no-hrd / info / hash=0 / no-temporal-layers / open-gop / min-keyint=23 / keyint=240 / gop-lookahead=0 / bframes=12 / b-adapt=2 / b-pyramid / bframe-bias=0 / rc-lookahead=60 / lookahead-slices=1 / scenecut=40 / radl=0 / no-splice / no-intra-refresh / ctu=32 / min-cu-size=8 / rect / amp / max-tu-size=32 / tu-inter-depth=4 / tu-intra-depth=4 / limit-tu=1 / rdoq-level=1 / dynamic-rd=0.00 / no-ssim-rd / signhide / no-tskip / nr-intra=0 / nr-inter=0 / no-constrained-intra / no-strong-intra-smoothing / max-merge=5 / limit-refs=3 / limit-modes / me=3 / subme=7 / merange=57 / temporal-mvp / no-hme / weightp / weightb / no-analyze-src-pics / deblock=-3:-3 / no-sao / no-sao-non-deblock / rd=6 / selective-sao=0 / no-early-skip / no-rskip / no-fast-intra / no-tskip-fast / no-cu-lossless / no-b-intra / no-splitrd-skip / rdpenalty=0 / psy-rd=2.00 / psy-rdoq=1.05 / no-rd-refine / no-lossless / cbqpoffs=0 / crqpoffs=0 / rc=crf / crf=19.0 / qcomp=0.70 / qpstep=4 / stats-write=0 / stats-read=0 / vbv-maxrate=50000 / vbv-bufsize=50000 / vbv-init=0.9 / crf-max=0.0 / crf-min=0.0 / ipratio=1.40 / pbratio=1.30 / aq-mode=1 / aq-strength=1.00 / no-cutree / zone-count=1 / zones: / start-frame=146195 / end-frame=153575 / qp=36 / no-strict-cbr / qg-size=32 / no-rc-grain / qpmax=69 / qpmin=0 / no-const-vbv / sar=1 / overscan=0 / videoformat=5 / range=0 / colorprim=1 / transfer=1 / colormatrix=1 / chromaloc=0 / display-window=0 / cll=0,0 / min-luma=0 / max-luma=1023 / log2-max-poc-lsb=8 / vui-timing-info / vui-hrd-info / slices=1 / no-opt-qp-pps / no-opt-ref-list-length-pps / no-multi-pass-opt-rps / scenecut-bias=0.05 / no-opt-cu-delta-qp / no-aq-motion / no-hdr / no-hdr-opt / no-dhdr10-opt / no-idr-recovery-sei / analysis-reuse-level=5 / scale-factor=0 / refine-intra=0 / refine-inter=0 / refine-mv=1 / refine-ctu-distortion=0 / no-limit-sao / ctu-info=0 / no-lowpass-dct / refine-analysis-type=0 / copy-pic=1 / max-ausize-factor=1.0 / no-dynamic-refine / no-single-sei / hevc-aq / no-svt / no-field / qp-adaptation-range=2.00
Language                    : English
Default                     : Yes
Forced                      : No
Color range                 : Limited
Color primaries             : BT.709
Transfer characteristics    : BT.709
Matrix coefficients         : BT.709

Audio #1
ID                          : 2
Format                      : AC-3
Format/Info                 : Audio Coding 3
Commercial name             : Dolby Digital
Codec ID                    : A_AC3
Duration                    : 1 h 46 min
Bit rate mode               : Constant
Bit rate                    : 640 kb/s
Channel(s)                  : 6 channels
Channel layout              : L R C LFE Ls Rs
Sampling rate               : 48.0 kHz
Frame rate                  : 31.250 FPS (1536 SPF)
Bit depth                   : 16 bits
Compression mode            : Lossy
Stream size                 : 489 MiB (7%)
Title                       : MVO (BD RUS)
Language                    : Russian
Service kind                : Complete Main
Default                     : Yes
Forced                      : No

Audio #2
ID                          : 3
Format                      : AC-3
Format/Info                 : Audio Coding 3
Commercial name             : Dolby Digital
Codec ID                    : A_AC3
Duration                    : 1 h 46 min
Bit rate mode               : Constant
Bit rate                    : 640 kb/s
Channel(s)                  : 6 channels
Channel layout              : L R C LFE Ls Rs
Sampling rate               : 48.0 kHz
Frame rate                  : 31.250 FPS (1536 SPF)
Bit depth                   : 16 bits
Compression mode            : Lossy
Stream size                 : 489 MiB (7%)
Title                       : AVO (Дасевич)
Language                    : Russian
Service kind                : Complete Main
Default                     : No
Forced                      : No

Audio #3
ID                          : 4
Format                      : AC-3
Format/Info                 : Audio Coding 3
Commercial name             : Dolby Digital
Codec ID                    : A_AC3
Duration                    : 1 h 46 min
Bit rate mode               : Constant
Bit rate                    : 640 kb/s
Channel(s)                  : 6 channels
Channel layout              : L R C LFE Ls Rs
Sampling rate               : 48.0 kHz
Frame rate                  : 31.250 FPS (1536 SPF)
Bit depth                   : 16 bits
Compression mode            : Lossy
Stream size                 : 489 MiB (7%)
Title                       : AVO (Матвеев)
Language                    : Russian
Service kind                : Complete Main
Default                     : No
Forced                      : No

Audio #4
ID                          : 5
Format                      : AC-3
Format/Info                 : Audio Coding 3
Commercial name             : Dolby Digital
Codec ID                    : A_AC3
Duration                    : 1 h 46 min
Bit rate mode               : Constant
Bit rate                    : 640 kb/s
Channel(s)                  : 6 channels
Channel layout              : L R C LFE Ls Rs
Sampling rate               : 48.0 kHz
Frame rate                  : 31.250 FPS (1536 SPF)
Bit depth                   : 16 bits
Compression mode            : Lossy
Stream size                 : 489 MiB (7%)
Title                       : AVO (Немахов)
Language                    : Russian
Service kind                : Complete Main
Default                     : No
Forced                      : No

Audio #5
ID                          : 6
Format                      : AC-3
Format/Info                 : Audio Coding 3
Commercial name             : Dolby Digital
Codec ID                    : A_AC3
Duration                    : 1 h 46 min
Bit rate mode               : Constant
Bit rate                    : 640 kb/s
Channel(s)                  : 6 channels
Channel layout              : L R C LFE Ls Rs
Sampling rate               : 48.0 kHz
Frame rate                  : 31.250 FPS (1536 SPF)
Bit depth                   : 16 bits
Compression mode            : Lossy
Stream size                 : 489 MiB (7%)
Title                       : Original
Language                    : English
Service kind                : Complete Main
Default                     : No
Forced                      : No

Text #1
ID                          : 7
Format                      : UTF-8
Codec ID                    : S_TEXT/UTF8
Codec ID/Info               : UTF-8 Plain Text
Duration                    : 1 h 36 min
Bit rate                    : 69 b/s
Count of elements           : 983
Stream size                 : 48.9 KiB (0%)
Title                       : full
Language                    : Russian
Default                     : No
Forced                      : No

Text #2
ID                          : 8
Format                      : UTF-8
Codec ID                    : S_TEXT/UTF8
Codec ID/Info               : UTF-8 Plain Text
Duration                    : 1 h 39 min
Bit rate                    : 66 b/s
Count of elements           : 933
Stream size                 : 48.6 KiB (0%)
Title                       : full (MartinaG)
Language                    : Russian
Default                     : No
Forced                      : No

Text #3
ID                          : 9
Format                      : UTF-8
Codec ID                    : S_TEXT/UTF8
Codec ID/Info               : UTF-8 Plain Text
Duration                    : 1 h 35 min
Bit rate                    : 45 b/s
Count of elements           : 894
Stream size                 : 31.8 KiB (0%)
Language                    : English
Default                     : No
Forced                      : No

Text #4
ID                          : 10
Format                      : UTF-8
Codec ID                    : S_TEXT/UTF8
Codec ID/Info               : UTF-8 Plain Text
Duration                    : 1 h 44 min
Bit rate                    : 44 b/s
Count of elements           : 1023
Stream size                 : 34.3 KiB (0%)
Title                       : SDH
Language                    : English
Default                     : No
Forced                      : No

Text #5
ID                          : 11
Format                      : UTF-8
Codec ID                    : S_TEXT/UTF8
Codec ID/Info               : UTF-8 Plain Text
Duration                    : 1 h 44 min
Bit rate                    : 52 b/s
Count of elements           : 1023
Stream size                 : 40.0 KiB (0%)
Title                       : Colored SDH
Language                    : English
Default                     : No
Forced                      : No

Menu
00:00:00.000                : en:Chapter 1
00:06:51.826                : en:Chapter 2
00:14:34.456                : en:Chapter 3
00:24:26.381                : en:Chapter 4
00:30:06.095                : en:Chapter 5
00:35:43.974                : en:Chapter 6
00:43:31.358                : en:Chapter 7
00:46:55.311                : en:Chapter 8
00:53:12.480                : en:Chapter 9
01:02:37.503                : en:Chapter 10
01:10:30.559                : en:Chapter 11
01:14:03.604                : en:Chapter 12
01:17:48.787                : en:Chapter 13
01:23:06.104                : en:Chapter 14
01:25:28.287                : en:Chapter 15
01:31:56.219                : en:Chapter 16
https://img16.lostpic.net/2019/10/29/64af316abdc32030556ad0d747b88b58.th.png https://img15.lostpic.net/2019/10/29/fb74259c202963978621f4b533629249.th.png https://img16.lostpic.net/2019/10/29/9b256d9e421f5ece0b0cbeeafcecd51a.th.png https://img15.lostpic.net/2019/10/29/e51a75657a430904754da136cc4d13a2.th.png https://img15.lostpic.net/2019/10/29/c71a133569b78dca374f2035cbab6ea7.th.png https://img16.lostpic.net/2019/10/29/e04101ae1b8d0407f085014d0d7fa03a.th.png https://img15.lostpic.net/2019/10/29/d10088edbe08b92cd2b99dee9ea3705d.th.png https://img16.lostpic.net/2019/10/29/0d4e7edf6f8c546bd49ca99695a3df33.th.png  
http://korsar.tv/images/Banner-Korsar.gif http://korsar.tv/img/VKontakte.png  


Привет, гость
- Запомнить
Регистрация
Информация

Торрент трекер ExKinoRay.TV

Здесь вы можете скачать новые фильмы, сериалы, игры, музыку, софт и многое другое. Большая скорость скачивания на мультитрекерных раздачах. Всё абсолютно бесплатно.