Расписание на послезавтра | 1979 | SATRip (AVC) | - KORSAR Одобрено администрацией

Участники
  • Раздают2
  • Качают0
  • Просмотров22
  • Скачали0
  • Комментариев0
  • Список файлов1
Залил раздачу
Поблагодарить
Никто
Характеристики
Вес1.75 GB (1,875,019,385)
Залит2020-03-24 17:46:04 Обновлено2020-03-24 17:48:33
Сетевая Нет
Чтобы скачать, необходимо авторизоваться или зарегистрироваться.
Статус: Одобрено администрацией
Хотите видеть детали Раздачи пройдите авторизацию или регистрацию!

Спасибо за понимание...
Просьба отключить блокировщики рекламы на странице скриншотов по адресу: http://3.lostpic.net/, этим Вы поможете существованию проекта. Заранее спасибо!
x264 [info]: frame I:697 Avg QP:16.88 size: 81792
x264 [info]: frame P:27092 Avg QP:20.23 size: 31884
x264 [info]: frame B:95582 Avg QP:21.41 size: 8732
x264 [info]: consecutive B-frames: 1.8% 2.2% 8.9% 17.0% 23.6% 43.8% 2.4% 0.3% 0.0%

General
Unique ID : 198007659083289689825371317335029587915 (0x94F6E352F652A3D14FF68B5374461FCB)
Complete name : S:\FILMS\Расписание на послезавтра (1979) SATRip-AVC - KORSAR.mkv
Format : Matroska
Format version : Version 4 / Version 2
File size : 1.75 GiB
Duration : 1 h 22 min
Overall bit rate : 3 040 kb/s
Movie name : Расписание на послезавтра (1979)_rip_by_Cthulhu
Encoded date : UTC 2020-01-14 16:08:23
Writing application : mkvmerge v37.0.0 ('Leave It') 64-bit
Writing library : libebml v1.3.9 + libmatroska v1.5.2
Cover : Yes
Attachments : cover23.jpg

Video
ID : 1
Format : AVC
Format/Info : Advanced Video Codec
Format profile : High@L4.1
Format settings : CABAC / 16 Ref Frames
Format settings, CABAC : Yes
Format settings, ReFrames : 16 frames
Codec ID : V_MPEG4/ISO/AVC
Duration : 1 h 22 min
Bit rate : 2 846 kb/s
Width : 698 pixels
Height : 570 pixels
Display aspect ratio : 4:3
Original display aspect rat : 4:3
Frame rate mode : Constant
Frame rate : 25.000 FPS
Color space : YUV
Chroma subsampling : 4:2:0
Bit depth : 8 bits
Scan type : Progressive
Bits/(Pixel*Frame) : 0.286
Stream size : 1.63 GiB (94%)
Writing library : x264 core 152 r2851kMod ba24899
Encoding settings : cabac=1 / ref=16 / deblock=1:-1:-1 / analyse=0x3:0x133 / me=umh / subme=11 / psy=1 / fade_compensate=0.00 / psy_rd=1.00:0.02 / mixed_ref=1 / me_range=48 / chroma_me=1 / trellis=2 / 8x8dct=1 / cqm=0 / deadzone=21,11 / fast_pskip=0 / chroma_qp_offset=-3 / threads=18 / lookahead_threads=3 / sliced_threads=0 / nr=0 / decimate=1 / interlaced=0 / bluray_compat=0 / constrained_intra=0 / bframes=8 / b_pyramid=2 / b_adapt=2 / b_bias=0 / direct=3 / weightb=1 / open_gop=0 / weightp=2 / keyint=250 / keyint_min=25 / scenecut=40 / intra_refresh=0 / rc_lookahead=60 / rc=2pass / mbtree=0 / bitrate=2846 / ratetol=1.0 / qcomp=0.60 / qpmin=0 / qpmax=39 / qpstep=4 / cplxblur=20.0 / qblur=0.5 / vbv_maxrate=50000 / vbv_bufsize=62500 / nal_hrd=none / filler=0 / ip_ratio=1.40 / pb_ratio=1.30 / aq=3:1.00
Language : Russian
Default : Yes
Forced : No
Color range : Limited
Color primaries : BT.601 PAL
Transfer characteristics : BT.470 System B/G
Matrix coefficients : BT.470 System B/G

Audio
ID : 2
Format : MPEG Audio
Format version : Version 1
Format profile : Layer 2
Codec ID : A_MPEG/L2
Codec ID/Hint : MP2
Duration : 1 h 22 min
Bit rate mode : Constant
Bit rate : 192 kb/s
Channel(s) : 2 channels
Sampling rate : 48.0 kHz
Frame rate : 41.667 FPS (1152 SPF)
Compression mode : Lossy
Stream size : 113 MiB (6%)
Language : Russian
Default : Yes
Forced : No
https://img16.lostpic.net/2020/01/14/be093cbe2d70852b5a6668f016bcd9a2.th.png https://img15.lostpic.net/2020/01/14/3dc44f054356313735ad57ee22851713.th.png https://img16.lostpic.net/2020/01/14/d3703fbfe865aaad86ff264538fb85b8.th.png https://img15.lostpic.net/2020/01/14/b9a190b538fb2e4327ff57c021fe9d6f.th.png https://img16.lostpic.net/2020/01/14/bd9bf7d79fd834d6a1de47ded8252a37.th.png https://img15.lostpic.net/2020/01/14/01235190e154719e5499a70964780991.th.png  
http://korsar.tv/images/Banner-Korsar.gif http://korsar.tv/img/VKontakte.png  


Привет, гость
- Запомнить
Регистрация
Информация

Торрент трекер ExKinoRay.TV

Здесь вы можете скачать новые фильмы, сериалы, игры, музыку, софт и многое другое. Большая скорость скачивания на мультитрекерных раздачах. Всё абсолютно бесплатно.