Гуттаперчевый мальчик | 1957 | DVDRip (AVC) | - KORSAR Одобрено администрацией

Участники
  • Раздают2
  • Качают0
  • Просмотров8
  • Скачали0
  • Комментариев0
  • Список файлов1
Залил раздачу
Поблагодарить
Никто
Характеристики
Вес1.66 GB (1,778,860,445)
Залит2020-03-26 03:46:07 Обновлено2020-03-26 03:51:28
Сетевая Нет
Чтобы скачать, необходимо авторизоваться или зарегистрироваться.
Статус: Одобрено администрацией
Хотите видеть детали Раздачи пройдите авторизацию или регистрацию!

Спасибо за понимание...
Просьба отключить блокировщики рекламы на странице скриншотов по адресу: http://3.lostpic.net/, этим Вы поможете существованию проекта. Заранее спасибо!
x264 [info]: frame I:617   Avg QP:15.52  size: 97491
x264 [info]: frame P:29803 Avg QP:18.93  size: 35235
x264 [info]: frame B:77613 Avg QP:21.47  size:  7265
x264 [info]: consecutive B-frames:  3.5%  6.3% 24.2% 23.0% 20.1% 18.8%  2.8%  0.8%  0.2%  0.1%  0.0%

General
Unique ID                   : 55107861188637848760572281969717043904 (0x297563543168ACEF2B25AAB0FC3862C0)
Complete name               : S:\FILMS\Гуттаперчевый мальчик (1957) DVDRip-AVC - KORSAR.mkv
Format                      : Matroska
Format version              : Version 4 / Version 2
File size                   : 1.66 GiB
Duration                    : 1 h 12 min
Overall bit rate            : 3 293 kb/s
Movie name                  : Гуттаперчевый мальчик (1957)_rip_by_Cthulhu
Encoded date                : UTC 2020-01-29 14:39:44
Writing application         : mkvmerge v37.0.0 ('Leave It') 64-bit
Writing library             : libebml v1.3.9 + libmatroska v1.5.2
Cover                       : Yes
Attachments                 : cover5.jpg

Video
ID                          : 1
Format                      : AVC
Format/Info                 : Advanced Video Codec
Format profile              : High@L4.1
Format settings             : CABAC / 16 Ref Frames
Format settings, CABAC      : Yes
Format settings, ReFrames   : 16 frames
Codec ID                    : V_MPEG4/ISO/AVC
Duration                    : 1 h 12 min
Bit rate                    : 3 100 kb/s
Width                       : 680 pixels
Height                      : 574 pixels
Display aspect ratio        : 5:4
Original display aspect rat : 5:4
Frame rate mode             : Constant
Frame rate                  : 25.000 FPS
Color space                 : YUV
Chroma subsampling          : 4:2:0
Bit depth                   : 8 bits
Scan type                   : Progressive
Bits/(Pixel*Frame)          : 0.318
Stream size                 : 1.56 GiB (94%)
Writing library             : x264 core 152 r2851kMod ba24899
Encoding settings           : cabac=1 / ref=16 / deblock=1:-1:-1 / analyse=0x3:0x133 / me=umh / subme=11 / psy=1 / fade_compensate=0.00 / psy_rd=1.00:0.00 / mixed_ref=1 / me_range=48 / chroma_me=1 / trellis=2 / 8x8dct=1 / cqm=0 / deadzone=21,11 / fast_pskip=0 / chroma_qp_offset=-2 / threads=18 / lookahead_threads=4 / sliced_threads=0 / nr=0 / decimate=1 / interlaced=0 / bluray_compat=0 / constrained_intra=0 / bframes=10 / b_pyramid=2 / b_adapt=2 / b_bias=0 / direct=3 / weightb=1 / open_gop=0 / weightp=2 / keyint=250 / keyint_min=25 / scenecut=40 / intra_refresh=0 / rc_lookahead=60 / rc=2pass / mbtree=0 / bitrate=3100 / ratetol=1.0 / qcomp=0.65 / qpmin=0 / qpmax=39 / qpstep=4 / cplxblur=20.0 / qblur=0.5 / vbv_maxrate=50000 / vbv_bufsize=62500 / nal_hrd=none / filler=0 / ip_ratio=1.40 / pb_ratio=1.30 / aq=2:1.00
Language                    : Russian
Default                     : Yes
Forced                      : No
Color range                 : Limited
Color primaries             : BT.601 PAL
Transfer characteristics    : BT.470 System B/G
Matrix coefficients         : BT.470 System B/G

Audio
ID                          : 2
Format                      : AC-3
Format/Info                 : Audio Coding 3
Commercial name             : Dolby Digital
Codec ID                    : A_AC3
Duration                    : 1 h 12 min
Bit rate mode               : Constant
Bit rate                    : 192 kb/s
Channel(s)                  : 2 channels
Channel layout              : L R
Sampling rate               : 48.0 kHz
Frame rate                  : 31.250 FPS (1536 SPF)
Bit depth                   : 16 bits
Compression mode            : Lossy
Stream size                 : 98.9 MiB (6%)
Language                    : Russian
Service kind                : Complete Main
Default                     : Yes
Forced                      : No

Menu
00:00:00.000                : en:Chapter 1
00:08:05.320                : en:Chapter 2
00:17:32.760                : en:Chapter 3
00:25:06.960                : en:Chapter 4
00:34:43.000                : en:Chapter 5
00:42:42.480                : en:Chapter 6
00:51:40.880                : en:Chapter 7
01:01:02.240                : en:Chapter 8
01:05:53.120                : en:Chapter 9
01:09:22.320                : en:Chapter 10
01:11:59.240                : en:Chapter 11
01:12:01.320                : en:Chapter 12
https://img16.lostpic.net/2020/01/29/8b55b026cd0cf467f5fe7303f6d11c8d.th.png https://img15.lostpic.net/2020/01/29/39e756d025680c7a673f31efcf2c6e6a.th.png https://img16.lostpic.net/2020/01/29/634caeaa33e189b1f6c06cb8e8efde2f.th.png https://img15.lostpic.net/2020/01/29/7d0a6a4dcb34070a1da965ebed1da60d.th.png https://img16.lostpic.net/2020/01/29/2ca5159da02c97887179510dcbd0d67e.th.png https://img15.lostpic.net/2020/01/29/82a280913b95a482d7a0de4ab88f2b51.th.png  
http://korsar.tv/images/Banner-Korsar.gif http://korsar.tv/img/VKontakte.png  
Похожих раздач нет


Привет, гость
- Запомнить
Регистрация
Информация

Торрент трекер ExKinoRay.TV

Здесь вы можете скачать новые фильмы, сериалы, игры, музыку, софт и многое другое. Большая скорость скачивания на мультитрекерных раздачах. Всё абсолютно бесплатно.