Звёздные войны: Скайуокер. Восход | Star Wars: Episode IX - The Rise of Skywalker | 2019 | BDRip-HEVC 1080p | Dub - KORSAR Одобрено администрацией

Участники
  • Раздают44
  • Качают2
  • Просмотров35
  • Скачали3
  • Комментариев0
  • Список файлов1
Залил раздачу
Поблагодарить
Никто
Характеристики
Вес10.60 GB (11,380,441,573)
Залит2020-03-27 15:37:05 Обновлено2020-03-28 02:59:19
Сетевая Да
Чтобы скачать, необходимо авторизоваться или зарегистрироваться.
Статус: Одобрено администрацией
Хотите видеть детали Раздачи пройдите авторизацию или регистрацию!

Спасибо за понимание...
Просьба отключить блокировщики рекламы на странице скриншотов по адресу: http://3.lostpic.net/, этим Вы поможете существованию проекта. Заранее спасибо!
x265 [info]: frame I:   2305, Avg QP:18.00  kb/s: 30569.63
x265 [info]: frame P:  39848, Avg QP:19.80  kb/s: 17018.92
x265 [info]: frame B: 161955, Avg QP:21.84  kb/s: 7560.60
x265 [info]: consecutive B-frames: 9.2% 1.9% 3.4% 34.8% 11.8% 26.2% 4.9% 4.5% 1.2% 0.8% 0.5% 0.7% 0.3%

General
Unique ID                   : 245473090243269122029060411436596396537 (0xB8AC65C2D3C7FE5B5A5B462E9E4701F9)
Complete name               : T:\HEVC3\Star Wars. SAGA\Звездные войны. Эпизод 9 - Скайуокер. Восход (2019) BDRip-HEVC 1080p - KORSAR.mkv
Format                      : Matroska
Format version              : Version 4 / Version 2
File size                   : 10.6 GiB
Duration                    : 2 h 21 min
Overall bit rate            : 10.7 Mb/s
Movie name                  : Star Wars: Episode IX - The Rise of Skywalker (2019)_rip_by_Cthulhu
Encoded date                : UTC 2020-03-23 16:04:08
Writing application         : mkvmerge v37.0.0 ('Leave It') 64-bit
Writing library             : libebml v1.3.9 + libmatroska v1.5.2
Cover                       : Yes
Attachments                 : cover5.jpg

Video
ID                          : 1
Format                      : HEVC
Format/Info                 : High Efficiency Video Coding
Format profile              : Main 10@L4.1@High
Codec ID                    : V_MPEGH/ISO/HEVC
Duration                    : 2 h 21 min
Bit rate                    : 9 668 kb/s
Width                       : 1 920 pixels
Height                      : 804 pixels
Display aspect ratio        : 2.40:1
Frame rate mode             : Constant
Frame rate                  : 23.976 (24000/1001) FPS
Color space                 : YUV
Chroma subsampling          : 4:2:0
Bit depth                   : 10 bits
Bits/(Pixel*Frame)          : 0.261
Stream size                 : 9.58 GiB (90%)
Writing library             : x265 3.3+2-gbe2d82093:[Windows][GCC 10.0.1][64 bit] 10bit
Encoding settings           : cpuid=1111039 / frame-threads=4 / numa-pools=16 / wpp / no-pmode / no-pme / no-psnr / no-ssim / log-level=2 / input-csp=1 / input-res=1920x804 / interlace=0 / total-frames=204108 / level-idc=41 / high-tier=1 / uhd-bd=0 / ref=6 / no-allow-non-conformance / no-repeat-headers / annexb / no-aud / no-hrd / info / hash=0 / no-temporal-layers / open-gop / min-keyint=23 / keyint=240 / gop-lookahead=0 / bframes=12 / b-adapt=2 / b-pyramid / bframe-bias=0 / rc-lookahead=60 / lookahead-slices=1 / scenecut=40 / hist-scenecut=0 / radl=0 / no-splice / no-intra-refresh / ctu=32 / min-cu-size=8 / rect / amp / max-tu-size=32 / tu-inter-depth=4 / tu-intra-depth=4 / limit-tu=1 / rdoq-level=2 / dynamic-rd=0.00 / no-ssim-rd / signhide / no-tskip / nr-intra=0 / nr-inter=0 / no-constrained-intra / no-strong-intra-smoothing / max-merge=5 / limit-refs=3 / limit-modes / me=3 / subme=7 / merange=57 / temporal-mvp / no-frame-dup / hme / Level / merange / L0,L1,L2=16,32,57 / weightp / weightb / no-analyze-src-pics / deblock=-3:-3 / no-sao / no-sao-non-deblock / rd=6 / selective-sao=0 / no-early-skip / rskip / rskip-edge-threshold=0.050000 / no-fast-intra / no-tskip-fast / no-cu-lossless / b-intra / no-splitrd-skip / rdpenalty=0 / psy-rd=2.00 / psy-rdoq=1.00 / no-rd-refine / no-lossless / cbqpoffs=0 / crqpoffs=0 / rc=crf / crf=19.5 / qcomp=0.66 / qpstep=4 / stats-write=0 / stats-read=0 / vbv-maxrate=50000 / vbv-bufsize=50000 / vbv-init=0.9 / crf-max=0.0 / crf-min=0.0 / ipratio=1.40 / pbratio=1.30 / aq-mode=4 / aq-strength=0.80 / no-cutree / zone-count=1 / zones: / start-frame=190533 / end-frame=203440 / qp=35 / no-strict-cbr / qg-size=32 / no-rc-grain / qpmax=69 / qpmin=0 / no-const-vbv / sar=1 / overscan=0 / videoformat=5 / range=0 / colorprim=1 / transfer=1 / colormatrix=1 / chromaloc=0 / display-window=0 / cll=0,0 / min-luma=0 / max-luma=1023 / log2-max-poc-lsb=8 / vui-timing-info / vui-hrd-info / slices=1 / no-opt-qp-pps / no-opt-ref-list-length-pps / no-multi-pass-opt-rps / scenecut-bias=0.05 / hist-threshold=0.01 / no-opt-cu-delta-qp / no-aq-motion / no-hdr10 / no-hdr10-opt / no-dhdr10-opt / no-idr-recovery-sei / analysis-reuse-level=0 / analysis-save-reuse-level=0 / analysis-load-reuse-level=0 / scale-factor=0 / refine-intra=0 / refine-inter=0 / refine-mv=1 / refine-ctu-distortion=0 / no-limit-sao / ctu-info=0 / no-lowpass-dct / refine-analysis-type=0 / copy-pic=1 / max-ausize-factor=1.0 / no-dynamic-refine / no-single-sei / no-hevc-aq / no-svt / no-field / qp-adaptation-range=1.00 / no-scenecut-aware-qpconformance-window-offsets / right=0 / bottom=0
Language                    : English
Default                     : Yes
Forced                      : No
Color range                 : Limited
Color primaries             : BT.709
Transfer characteristics    : BT.709
Matrix coefficients         : BT.709

Audio #1
ID                          : 2
Format                      : AC-3
Format/Info                 : Audio Coding 3
Commercial name             : Dolby Digital
Codec ID                    : A_AC3
Duration                    : 2 h 21 min
Bit rate mode               : Constant
Bit rate                    : 384 kb/s
Channel(s)                  : 6 channels
Channel layout              : L R C LFE Ls Rs
Sampling rate               : 48.0 kHz
Frame rate                  : 31.250 FPS (1536 SPF)
Bit depth                   : 16 bits
Compression mode            : Lossy
Stream size                 : 390 MiB (4%)
Title                       : DUB (iTunes)
Language                    : Russian
Service kind                : Complete Main
Default                     : Yes
Forced                      : No

Audio #2
ID                          : 3
Format                      : AC-3
Format/Info                 : Audio Coding 3
Commercial name             : Dolby Digital
Codec ID                    : A_AC3
Duration                    : 2 h 21 min
Bit rate mode               : Constant
Bit rate                    : 640 kb/s
Channel(s)                  : 6 channels
Channel layout              : L R C LFE Ls Rs
Sampling rate               : 48.0 kHz
Frame rate                  : 31.250 FPS (1536 SPF)
Bit depth                   : 16 bits
Compression mode            : Lossy
Stream size                 : 649 MiB (6%)
Language                    : English
Service kind                : Complete Main
Default                     : No
Forced                      : No

Text #1
ID                          : 4
Format                      : UTF-8
Codec ID                    : S_TEXT/UTF8
Codec ID/Info               : UTF-8 Plain Text
Duration                    : 1 h 37 min
Bit rate                    : 1 b/s
Count of elements           : 10
Stream size                 : 938 Bytes (0%)
Title                       : Forced
Language                    : Russian
Default                     : No
Forced                      : Yes

Text #2
ID                          : 5
Format                      : UTF-8
Codec ID                    : S_TEXT/UTF8
Codec ID/Info               : UTF-8 Plain Text
Duration                    : 2 h 17 min
Bit rate                    : 57 b/s
Count of elements           : 1435
Stream size                 : 58.1 KiB (0%)
Title                       : Full
Language                    : Russian
Default                     : No
Forced                      : No

Text #3
ID                          : 6
Format                      : UTF-8
Codec ID                    : S_TEXT/UTF8
Codec ID/Info               : UTF-8 Plain Text
Duration                    : 2 h 11 min
Bit rate                    : 73 b/s
Count of elements           : 1764
Stream size                 : 71.1 KiB (0%)
Title                       : SDH
Language                    : Russian
Default                     : No
Forced                      : No

Text #4
ID                          : 7
Format                      : UTF-8
Codec ID                    : S_TEXT/UTF8
Codec ID/Info               : UTF-8 Plain Text
Duration                    : 2 h 11 min
Bit rate                    : 39 b/s
Count of elements           : 1460
Stream size                 : 37.9 KiB (0%)
Title                       : Full
Language                    : English
Default                     : No
Forced                      : No

Text #5
ID                          : 8
Format                      : UTF-8
Codec ID                    : S_TEXT/UTF8
Codec ID/Info               : UTF-8 Plain Text
Duration                    : 2 h 11 min
Bit rate                    : 48 b/s
Count of elements           : 1895
Stream size                 : 47.1 KiB (0%)
Title                       : SDH
Language                    : English
Default                     : No
Forced                      : No

Menu
00:00:00.000                : en:Глава 01
00:00:09.176                : en:Глава 02
00:01:40.934                : en:Глава 03
00:03:47.811                : en:Глава 04
00:06:42.902                : en:Глава 05
00:08:26.673                : en:Глава 06
00:10:04.896                : en:Глава 07
00:12:48.142                : en:Глава 08
00:13:54.000                : en:Глава 09
00:15:17.416                : en:Глава 10
00:17:13.199                : en:Глава 11
00:19:25.039                : en:Глава 12
00:21:28.579                : en:Глава 13
00:25:27.693                : en:Глава 14
00:27:14.883                : en:Глава 15
00:30:41.548                : en:Глава 16
00:35:49.064                : en:Глава 17
00:41:37.745                : en:Глава 18
00:43:15.259                : en:Глава 19
00:45:28.351                : en:Глава 20
00:48:24.568                : en:Глава 21
00:54:37.566                : en:Глава 22
00:58:49.192                : en:Глава 23
01:02:54.771                : en:Глава 24
01:06:23.104                : en:Глава 25
01:09:54.607                : en:Глава 26
01:13:07.383                : en:Глава 27
01:18:23.616                : en:Глава 28
01:23:41.225                : en:Глава 29
01:27:02.884                : en:Глава 30
01:30:23.126                : en:Глава 31
01:35:00.820                : en:Глава 32
01:38:47.880                : en:Глава 33
01:40:35.863                : en:Глава 34
01:43:03.135                : en:Глава 35
01:45:27.863                : en:Глава 36
01:48:48.188                : en:Глава 37
01:53:27.634                : en:Глава 38
01:55:30.757                : en:Глава 39
01:59:02.969                : en:Глава 40
02:01:37.749                : en:Глава 41
02:05:20.430                : en:Глава 42
02:09:42.692                : en:Глава 43
02:12:25.896                : en:Глава 44
https://img10.lostpic.net/2020/03/23/2aa59a4a96af459c431c0f9467d3d628.th.png https://img10.lostpic.net/2020/03/23/84ee471614be4eddb3168e3352fc0e66.th.png https://img10.lostpic.net/2020/03/23/e49141320a47ea2043ed16e1cc44f119.th.png https://img10.lostpic.net/2020/03/23/0f347b999d779592a86b53da0e4f7af8.th.png https://img10.lostpic.net/2020/03/23/f3db9966fd75bb9e450927e10b8185f8.th.png https://img10.lostpic.net/2020/03/23/f21a1bd2af8a870e72e4056ca7c066f3.th.png https://img10.lostpic.net/2020/03/23/bc009a9f7acc77764a51040903ace9f5.th.png https://img10.lostpic.net/2020/03/23/2ce719f0a5484c316e3cd48ea0fc3406.th.png https://img10.lostpic.net/2020/03/23/8f0f4bff38032ec0f2b711b15a405813.th.png https://img10.lostpic.net/2020/03/23/bba5e37929b0eda93c2c07142f157ca1.th.png https://img10.lostpic.net/2020/03/23/62334b5b33ff42559c260674ba6b9a17.th.png https://img10.lostpic.net/2020/03/23/c8f575582d3a92ee120e9ba0861dee1a.th.png  
http://korsar.tv/images/Banner-Korsar.gif http://korsar.tv/img/VKontakte.png  


Привет, гость
- Запомнить
Регистрация
Информация

Торрент трекер ExKinoRay.TV

Здесь вы можете скачать новые фильмы, сериалы, игры, музыку, софт и многое другое. Большая скорость скачивания на мультитрекерных раздачах. Всё абсолютно бесплатно.