Сексмиссия | Новые амазонки | Seksmisja | 1983 | BDRip-HEVC (1080p) | MVO, DVO - KORSAR Одобрено администрацией

Участники
  • Раздают6
  • Качают0
  • Просмотров29
  • Скачали3
  • Комментариев0
  • Список файлов1
Залил раздачу
Поблагодарить
Характеристики
Вес7.68 GB (8,249,631,995)
Залит2020-03-27 15:47:46 Обновлено2020-03-28 01:38:16
Сетевая Нет
Чтобы скачать, необходимо авторизоваться или зарегистрироваться.
Статус: Одобрено администрацией
Хотите видеть детали Раздачи пройдите авторизацию или регистрацию!

Спасибо за понимание...
Просьба отключить блокировщики рекламы на странице скриншотов по адресу: http://3.lostpic.net/, этим Вы поможете существованию проекта. Заранее спасибо!
x265 [info]: frame I:   1605, Avg QP:17.30  kb/s: 27060.37x265 [info]: frame P:  38608, Avg QP:18.96  kb/s: 16658.91x265 [info]: frame B: 134923, Avg QP:21.28  kb/s: 4813.19 x265 [info]: consecutive B-frames: 4.7% 1.6% 3.0% 60.6% 8.8% 19.3% 0.8% 0.6% 0.3%GeneralUnique ID                   : 251413798487658720727733579122236587612 (0xBD24894A8F7900E3354EE9B05C89FE5C)Complete name               : H:\HEVC4\Сексмиссия - Seksmisja (1983) BDRip-HEVC 1080p - KORSAR.mkvFormat                      : MatroskaFormat version              : Version 4 / Version 2File size                   : 7.68 GiBDuration                    : 1 h 56 minOverall bit rate            : 9 421 kb/sMovie name                  : Sexmission (1983)_rip_by_CthulhuEncoded date                : UTC 2020-02-05 16:47:31Writing application         : mkvmerge v37.0.0 ('Leave It') 64-bitWriting library             : libebml v1.3.9 + libmatroska v1.5.2Cover                       : YesAttachments                 : cover19.jpgVideoID                          : 1Format                      : HEVCFormat/Info                 : High Efficiency Video CodingFormat profile              : Main 10@L4.1@HighCodec ID                    : V_MPEGH/ISO/HEVCDuration                    : 1 h 56 minBit rate                    : 7 629 kb/sWidth                       : 1 920 pixelsHeight                      : 1 040 pixelsDisplay aspect ratio        : 1.85:1Frame rate mode             : ConstantFrame rate                  : 25.000 FPSColor space                 : YUVChroma subsampling          : 4:2:0Bit depth                   : 10 bitsBits/(Pixel*Frame)          : 0.153Stream size                 : 6.22 GiB (81%)Writing library             : x265 3.2.1+3-b4b2ecac21f6:[Windows][MSVC 1900][64 bit] 10bitEncoding settings           : cpuid=1111039 / frame-threads=4 / numa-pools=16 / wpp / no-pmode / no-pme / no-psnr / no-ssim / log-level=2 / input-csp=1 / input-res=1920x1040 / interlace=0 / total-frames=175136 / level-idc=41 / high-tier=1 / uhd-bd=0 / ref=5 / no-allow-non-conformance / no-repeat-headers / annexb / no-aud / no-hrd / info / hash=0 / no-temporal-layers / open-gop / min-keyint=23 / keyint=240 / gop-lookahead=0 / bframes=8 / b-adapt=2 / b-pyramid / bframe-bias=0 / rc-lookahead=60 / lookahead-slices=1 / scenecut=40 / radl=0 / no-splice / no-intra-refresh / ctu=32 / min-cu-size=8 / rect / amp / max-tu-size=32 / tu-inter-depth=4 / tu-intra-depth=4 / limit-tu=1 / rdoq-level=2 / dynamic-rd=0.00 / no-ssim-rd / signhide / no-tskip / nr-intra=0 / nr-inter=0 / no-constrained-intra / no-strong-intra-smoothing / max-merge=5 / limit-refs=3 / limit-modes / me=3 / subme=7 / merange=57 / temporal-mvp / hme / Level / weightp / weightb / no-analyze-src-pics / deblock=-2:-2 / no-sao / no-sao-non-deblock / rd=6 / selective-sao=0 / no-early-skip / no-rskip / no-fast-intra / no-tskip-fast / no-cu-lossless / no-b-intra / no-splitrd-skip / rdpenalty=0 / psy-rd=2.20 / psy-rdoq=1.15 / no-rd-refine / no-lossless / cbqpoffs=0 / crqpoffs=0 / rc=crf / crf=19.5 / qcomp=0.65 / qpstep=4 / stats-write=0 / stats-read=0 / vbv-maxrate=50000 / vbv-bufsize=50000 / vbv-init=0.9 / crf-max=0.0 / crf-min=0.0 / ipratio=1.40 / pbratio=1.30 / aq-mode=4 / aq-strength=0.80 / no-cutree / zone-count=1 / zones: / start-frame=172473 / end-frame=175135 / qp=36 / no-strict-cbr / qg-size=32 / no-rc-grain / qpmax=69 / qpmin=0 / no-const-vbv / sar=1 / overscan=0 / videoformat=5 / range=0 / colorprim=1 / transfer=1 / colormatrix=1 / chromaloc=0 / display-window=0 / cll=0,0 / min-luma=0 / max-luma=1023 / log2-max-poc-lsb=8 / vui-timing-info / vui-hrd-info / slices=1 / no-opt-qp-pps / no-opt-ref-list-length-pps / no-multi-pass-opt-rps / scenecut-bias=0.05 / no-opt-cu-delta-qp / no-aq-motion / no-hdr / no-hdr-opt / no-dhdr10-opt / no-idr-recovery-sei / analysis-reuse-level=5 / scale-factor=0 / refine-intra=0 / refine-inter=0 / refine-mv=1 / refine-ctu-distortion=0 / no-limit-sao / ctu-info=0 / no-lowpass-dct / refine-analysis-type=0 / copy-pic=1 / max-ausize-factor=1.0 / no-dynamic-refine / no-single-sei / no-hevc-aq / no-svt / no-field / qp-adaptation-range=1.00Language                    : PolishDefault                     : YesForced                      : NoColor range                 : LimitedColor primaries             : BT.709Transfer characteristics    : BT.709Matrix coefficients         : BT.709Audio #1ID                          : 2Format                      : AC-3Format/Info                 : Audio Coding 3Commercial name             : Dolby DigitalCodec ID                    : A_AC3Duration                    : 1 h 56 minBit rate mode               : ConstantBit rate                    : 384 kb/sChannel(s)                  : 6 channelsChannel layout              : L R C LFE Ls RsSampling rate               : 48.0 kHzFrame rate                  : 31.250 FPS (1536 SPF)Bit depth                   : 16 bitsCompression mode            : LossyStream size                 : 320 MiB (4%)Title                       : MVOLanguage                    : RussianService kind                : Complete MainDefault                     : YesForced                      : NoAudio #2ID                          : 3Format                      : AC-3Format/Info                 : Audio Coding 3Commercial name             : Dolby DigitalCodec ID                    : A_AC3Duration                    : 1 h 56 minBit rate mode               : ConstantBit rate                    : 448 kb/sChannel(s)                  : 5 channelsChannel layout              : L R C Ls RsSampling rate               : 48.0 kHzFrame rate                  : 31.250 FPS (1536 SPF)Bit depth                   : 16 bitsCompression mode            : LossyStream size                 : 374 MiB (5%)Title                       : DVO (Ленфильм)Language                    : RussianService kind                : Complete MainDefault                     : NoForced                      : NoAudio #3ID                          : 4Format                      : AC-3Format/Info                 : Audio Coding 3Commercial name             : Dolby DigitalCodec ID                    : A_AC3Duration                    : 1 h 56 minBit rate mode               : ConstantBit rate                    : 256 kb/sChannel(s)                  : 2 channelsChannel layout              : L RSampling rate               : 48.0 kHzFrame rate                  : 31.250 FPS (1536 SPF)Bit depth                   : 16 bitsCompression mode            : LossyStream size                 : 213 MiB (3%)Title                       : DVO (ТВ-Центр)Language                    : RussianService kind                : Complete MainDefault                     : NoForced                      : NoAudio #4ID                          : 5Format                      : AC-3Format/Info                 : Audio Coding 3Commercial name             : Dolby DigitalCodec ID                    : A_AC3Duration                    : 1 h 55 minBit rate mode               : ConstantBit rate                    : 256 kb/sChannel(s)                  : 2 channelsChannel layout              : L RSampling rate               : 48.0 kHzFrame rate                  : 31.250 FPS (1536 SPF)Bit depth                   : 16 bitsCompression mode            : LossyStream size                 : 212 MiB (3%)Title                       : MVO (Мастер Тэйп)Language                    : RussianService kind                : Complete MainDefault                     : NoForced                      : NoAudio #5ID                          : 6Format                      : AC-3Format/Info                 : Audio Coding 3Commercial name             : Dolby DigitalCodec ID                    : A_AC3Duration                    : 1 h 56 minBit rate mode               : ConstantBit rate                    : 192 kb/sChannel(s)                  : 2 channelsChannel layout              : L RSampling rate               : 48.0 kHzFrame rate                  : 31.250 FPS (1536 SPF)Bit depth                   : 16 bitsCompression mode            : LossyStream size                 : 160 MiB (2%)Title                       : MVO (Рен-ТВ)Language                    : RussianService kind                : Complete MainDefault                     : NoForced                      : NoAudio #6ID                          : 7Format                      : AC-3Format/Info                 : Audio Coding 3Commercial name             : Dolby DigitalCodec ID                    : A_AC3Duration                    : 1 h 56 minBit rate mode               : ConstantBit rate                    : 256 kb/sChannel(s)                  : 2 channelsChannel layout              : L RSampling rate               : 48.0 kHzFrame rate                  : 31.250 FPS (1536 SPF)Bit depth                   : 16 bitsCompression mode            : LossyStream size                 : 214 MiB (3%)Language                    : PolishService kind                : Complete MainDefault                     : NoForced                      : NoText #1ID                          : 8Format                      : UTF-8Codec ID                    : S_TEXT/UTF8Codec ID/Info               : UTF-8 Plain TextDuration                    : 1 h 54 minBit rate                    : 97 b/sCount of elements           : 1373Stream size                 : 81.1 KiB (0%)Language                    : RussianDefault                     : NoForced                      : NoText #2ID                          : 9Format                      : UTF-8Codec ID                    : S_TEXT/UTF8Codec ID/Info               : UTF-8 Plain TextDuration                    : 1 h 53 minBit rate                    : 51 b/sCount of elements           : 1190Stream size                 : 43.0 KiB (0%)Language                    : EnglishDefault                     : NoForced                      : NoMenu00:00:00.000                : en:Chapter 100:01:05.760                : en:Chapter 200:12:01.440                : en:Chapter 300:29:01.480                : en:Chapter 400:44:38.400                : en:Chapter 501:00:19.200                : en:Chapter 601:12:54.720                : en:Chapter 701:29:43.680                : en:Chapter 801:42:35.040                : en:Chapter 9
https://img16.lostpic.net/2020/02/05/5a69edf5710055e7057bd5faf7cba9cc.th.png https://img15.lostpic.net/2020/02/05/3984c4a40bc112724d5574a2759487c2.th.png https://img16.lostpic.net/2020/02/05/8d52d64f6aa1a8e11b8abf18d1850c8d.th.png https://img15.lostpic.net/2020/02/05/0b6451eb61c170e754939992aac95085.th.png https://img16.lostpic.net/2020/02/05/7f56aec10ae6cd88fcbca6c148486b08.th.png https://img15.lostpic.net/2020/02/05/b931544a6334b162cfaa6d31e1291752.th.png  
http://korsar.tv/images/Banner-Korsar.gif http://korsar.tv/img/VKontakte.png  


Привет, гость
- Запомнить
Регистрация
Информация

Торрент трекер ExKinoRay.TV

Здесь вы можете скачать новые фильмы, сериалы, игры, музыку, софт и многое другое. Большая скорость скачивания на мультитрекерных раздачах. Всё абсолютно бесплатно.