Кодовое название -"Южный гром" | 1980 | SATRip (AVC) - KORSAR Одобрено администрацией

Участники
  • Раздают1
  • Качают0
  • Просмотров56
  • Скачали2
  • Комментариев0
  • Список файлов2
Залил раздачу
Поблагодарить
Никто
Характеристики
Вес3.36 GB (3,603,369,867)
Залит2020-03-27 15:48:12 Обновлено2020-03-28 01:20:03
Сетевая Нет
Чтобы скачать, необходимо авторизоваться или зарегистрироваться.
Статус: Одобрено администрацией
Хотите видеть детали Раздачи пройдите авторизацию или регистрацию!

Спасибо за понимание...
Просьба отключить блокировщики рекламы на странице скриншотов по адресу: http://3.lostpic.net/, этим Вы поможете существованию проекта. Заранее спасибо!
x264 [info]: frame I:527   Avg QP:18.94  size: 67642x264 [info]: frame P:21532 Avg QP:20.36  size: 36883x264 [info]: frame B:70413 Avg QP:21.46  size: 12936x264 [info]: consecutive B-frames:  4.0%  1.8%  5.1% 20.1% 21.9% 46.7%  0.3%  0.0%  0.0%GeneralUnique ID                   : 159309262624464786420104983470353048157 (0x77D9D911FC03F075D76A7115F0FE625D)Complete name               : S:\FILMS\Кодовое название «Южный гром» (1980)\Кодовое название «Южный гром» 1серия (1980) SATRip-AVC  - KORSAR.mkvFormat                      : MatroskaFormat version              : Version 4 / Version 2File size                   : 1.73 GiBDuration                    : 1 h 1 minOverall bit rate            : 4 023 kb/sMovie name                  : Кодовое название «Южный гром» (1980)_rip_by_CthulhuEncoded date                : UTC 2020-01-29 15:05:31Writing application         : mkvmerge v37.0.0 ('Leave It') 64-bitWriting library             : libebml v1.3.9 + libmatroska v1.5.2Cover                       : YesAttachments                 : cover11.jpgVideoID                          : 1Format                      : AVCFormat/Info                 : Advanced Video CodecFormat profile              : High@L4.1Format settings             : CABAC / 16 Ref FramesFormat settings, CABAC      : YesFormat settings, ReFrames   : 16 framesCodec ID                    : V_MPEG4/ISO/AVCDuration                    : 1 h 1 minBit rate                    : 3 765 kb/sWidth                       : 700 pixelsHeight                      : 570 pixelsDisplay aspect ratio        : 4:3Original display aspect rat : 4:3Frame rate mode             : ConstantFrame rate                  : 25.000 FPSColor space                 : YUVChroma subsampling          : 4:2:0Bit depth                   : 8 bitsScan type                   : ProgressiveBits/(Pixel*Frame)          : 0.377Stream size                 : 1.62 GiB (94%)Writing library             : x264 core 152 r2851kMod ba24899Encoding settings           : cabac=1 / ref=16 / deblock=1:-1:-1 / analyse=0x3:0x133 / me=umh / subme=11 / psy=1 / fade_compensate=0.00 / psy_rd=1.00:0.00 / mixed_ref=1 / me_range=48 / chroma_me=1 / trellis=2 / 8x8dct=1 / cqm=0 / deadzone=21,11 / fast_pskip=0 / chroma_qp_offset=-2 / threads=18 / lookahead_threads=3 / sliced_threads=0 / nr=0 / decimate=1 / interlaced=0 / bluray_compat=0 / constrained_intra=0 / bframes=8 / b_pyramid=2 / b_adapt=2 / b_bias=0 / direct=1 / weightb=1 / open_gop=0 / weightp=2 / keyint=250 / keyint_min=25 / scenecut=40 / intra_refresh=0 / rc_lookahead=60 / rc=crf / mbtree=0 / crf=17.5000 / qcomp=0.60 / qpmin=0 / qpmax=39 / qpstep=4 / vbv_maxrate=50000 / vbv_bufsize=62500 / crf_max=0.0 / nal_hrd=none / filler=0 / ip_ratio=1.40 / pb_ratio=1.30 / aq=3:1.00Language                    : RussianDefault                     : YesForced                      : NoColor range                 : LimitedColor primaries             : BT.601 PALTransfer characteristics    : BT.470 System B/GMatrix coefficients         : BT.470 System B/GAudioID                          : 2Format                      : AC-3Format/Info                 : Audio Coding 3Commercial name             : Dolby DigitalCodec ID                    : A_AC3Duration                    : 1 h 1 minBit rate mode               : ConstantBit rate                    : 256 kb/sChannel(s)                  : 2 channelsChannel layout              : L RSampling rate               : 48.0 kHzFrame rate                  : 31.250 FPS (1536 SPF)Bit depth                   : 16 bitsCompression mode            : LossyStream size                 : 113 MiB (6%)Language                    : RussianService kind                : Complete MainDefault                     : YesForced                      : Nox264 [info]: frame I:515   Avg QP:19.46  size: 64167x264 [info]: frame P:20789 Avg QP:20.91  size: 35081x264 [info]: frame B:71168 Avg QP:21.73  size: 12110x264 [info]: consecutive B-frames:  3.9%  1.1%  3.8% 16.0% 23.9% 51.0%  0.2%  0.0%  0.0%GeneralUnique ID                   : 277022886840815911249142740458134985882 (0xD068AAD47BA22CCF8FE1BDD418DA5C9A)Complete name               : S:\FILMS\Кодовое название «Южный гром» (1980)\Кодовое название «Южный гром» 2серия (1980) SATRip-AVC  - KORSAR.mkvFormat                      : MatroskaFormat version              : Version 4 / Version 2File size                   : 1.62 GiBDuration                    : 1 h 1 minOverall bit rate            : 3 771 kb/sMovie name                  : Кодовое название «Южный гром» (1980)_rip_by_CthulhuEncoded date                : UTC 2020-01-29 15:14:21Writing application         : mkvmerge v37.0.0 ('Leave It') 64-bitWriting library             : libebml v1.3.9 + libmatroska v1.5.2Cover                       : YesAttachments                 : cover11.jpgVideoID                          : 1Format                      : AVCFormat/Info                 : Advanced Video CodecFormat profile              : High@L4.1Format settings             : CABAC / 16 Ref FramesFormat settings, CABAC      : YesFormat settings, ReFrames   : 16 framesCodec ID                    : V_MPEG4/ISO/AVCDuration                    : 1 h 1 minBit rate                    : 3 513 kb/sWidth                       : 700 pixelsHeight                      : 570 pixelsDisplay aspect ratio        : 4:3Original display aspect rat : 4:3Frame rate mode             : ConstantFrame rate                  : 25.000 FPSColor space                 : YUVChroma subsampling          : 4:2:0Bit depth                   : 8 bitsScan type                   : ProgressiveBits/(Pixel*Frame)          : 0.352Stream size                 : 1.51 GiB (93%)Writing library             : x264 core 152 r2851kMod ba24899Encoding settings           : cabac=1 / ref=16 / deblock=1:-1:-1 / analyse=0x3:0x133 / me=umh / subme=11 / psy=1 / fade_compensate=0.00 / psy_rd=1.00:0.00 / mixed_ref=1 / me_range=48 / chroma_me=1 / trellis=2 / 8x8dct=1 / cqm=0 / deadzone=21,11 / fast_pskip=0 / chroma_qp_offset=-2 / threads=18 / lookahead_threads=3 / sliced_threads=0 / nr=0 / decimate=1 / interlaced=0 / bluray_compat=0 / constrained_intra=0 / bframes=8 / b_pyramid=2 / b_adapt=2 / b_bias=0 / direct=1 / weightb=1 / open_gop=0 / weightp=2 / keyint=250 / keyint_min=25 / scenecut=40 / intra_refresh=0 / rc_lookahead=60 / rc=crf / mbtree=0 / crf=18.0000 / qcomp=0.60 / qpmin=0 / qpmax=39 / qpstep=4 / vbv_maxrate=50000 / vbv_bufsize=62500 / crf_max=0.0 / nal_hrd=none / filler=0 / ip_ratio=1.40 / pb_ratio=1.30 / aq=3:1.00Language                    : RussianDefault                     : YesForced                      : NoColor range                 : LimitedColor primaries             : BT.601 PALTransfer characteristics    : BT.470 System B/GMatrix coefficients         : BT.470 System B/GAudioID                          : 2Format                      : AC-3Format/Info                 : Audio Coding 3Commercial name             : Dolby DigitalCodec ID                    : A_AC3Duration                    : 1 h 1 minBit rate mode               : ConstantBit rate                    : 256 kb/sChannel(s)                  : 2 channelsChannel layout              : L RSampling rate               : 48.0 kHzFrame rate                  : 31.250 FPS (1536 SPF)Bit depth                   : 16 bitsCompression mode            : LossyStream size                 : 113 MiB (7%)Language                    : RussianService kind                : Complete MainDefault                     : YesForced                      : No
https://img15.lostpic.net/2020/01/29/7b22f9b997a5f22349d3516d49663086.th.png https://img16.lostpic.net/2020/01/29/98954bb42f246b4b564ee57712c11814.th.png https://img15.lostpic.net/2020/01/29/4e0c3014679d9e3804ca42bcd5d17594.th.png https://img16.lostpic.net/2020/01/29/5499ecba6d2a8ea30bb4cda96a6ee492.th.png https://img15.lostpic.net/2020/01/29/ab5e321ced6fd95d820a3b6ba97a2909.th.png https://img16.lostpic.net/2020/01/29/3e5279f3462d1007ec2324a20daa4c01.th.png  
http://korsar.tv/images/Banner-Korsar.gif http://korsar.tv/img/VKontakte.png  
Похожих раздач нет


Привет, гость
- Запомнить
Регистрация
Информация

Торрент трекер ExKinoRay.TV

Здесь вы можете скачать новые фильмы, сериалы, игры, музыку, софт и многое другое. Большая скорость скачивания на мультитрекерных раздачах. Всё абсолютно бесплатно.