Меч короля Артура | King Arthur: Legend of the Sword | 2017 | BDRip-HEVC (1080p) - KORSAR Одобрено администрацией

Участники
  • Раздают0
  • Качают0
  • Просмотров84
  • Скачали1
  • Комментариев0
  • Список файлов1
Залил раздачу
Поблагодарить
Никто
Характеристики
Вес7.16 GB (7,690,994,621)
Залит2020-03-27 15:49:09 Обновлено2020-03-28 16:14:36
Сетевая Нет
Чтобы скачать, необходимо авторизоваться или зарегистрироваться.
Статус: Одобрено администрацией
Хотите видеть детали Раздачи пройдите авторизацию или регистрацию!

Спасибо за понимание...
Просьба отключить блокировщики рекламы на странице скриншотов по адресу: http://3.lostpic.net/, этим Вы поможете существованию проекта. Заранее спасибо!
x265 [info]: frame I:   2509, Avg QP:17.67  kb/s: 19842.88x265 [info]: frame P:  33833, Avg QP:19.47  kb/s: 10246.88x265 [info]: frame B: 145240, Avg QP:21.83  kb/s: 4221.60 x265 [info]: consecutive B-frames: 12.6% 6.1% 7.2% 22.4% 10.3% 16.5% 8.8% 7.4% 2.9% 2.1% 1.2% 1.1% 0.5% 0.3% 0.3% GeneralUnique ID                   : 328549257597952350744789943680311356580 (0xF72C490C2274B51B2EF9031062E5ECA4)Complete name               : H:\HEVC4\Меч короля Артура (2017) BDRip-HEVC 1080p - KORSAR.mkvFormat                      : MatroskaFormat version              : Version 4 / Version 2File size                   : 7.16 GiBDuration                    : 2 h 6 minOverall bit rate            : 8 124 kb/sMovie name                  : King Arthur: Legend of the Sword (2017)_rip_by_CthulhuEncoded date                : UTC 2020-01-07 08:43:14Writing application         : mkvmerge v37.0.0 ('Leave It') 64-bitWriting library             : libebml v1.3.9 + libmatroska v1.5.2Cover                       : YesAttachments                 : cover15.jpgVideoID                          : 1Format                      : HEVCFormat/Info                 : High Efficiency Video CodingFormat profile              : Main 10@L4.1@HighCodec ID                    : V_MPEGH/ISO/HEVCDuration                    : 2 h 6 minBit rate                    : 5 561 kb/sWidth                       : 1 920 pixelsHeight                      : 800 pixelsDisplay aspect ratio        : 2.40:1Frame rate mode             : ConstantFrame rate                  : 23.976 (24000/1001) FPSColor space                 : YUVChroma subsampling          : 4:2:0Bit depth                   : 10 bitsBits/(Pixel*Frame)          : 0.151Stream size                 : 4.90 GiB (68%)Writing library             : x265 3.2+5-a3a088a7262f:[Windows][GCC 9.2.0][64 bit] 10bitEncoding settings           : cpuid=1111039 / frame-threads=4 / numa-pools=16 / wpp / no-pmode / no-pme / no-psnr / no-ssim / log-level=2 / input-csp=1 / input-res=1920x800 / interlace=0 / total-frames=181582 / level-idc=41 / high-tier=1 / uhd-bd=0 / ref=5 / no-allow-non-conformance / no-repeat-headers / annexb / no-aud / no-hrd / info / hash=0 / no-temporal-layers / open-gop / min-keyint=23 / keyint=240 / gop-lookahead=0 / bframes=14 / b-adapt=2 / b-pyramid / bframe-bias=0 / rc-lookahead=60 / lookahead-slices=1 / scenecut=40 / radl=0 / no-splice / no-intra-refresh / ctu=32 / min-cu-size=8 / rect / amp / max-tu-size=32 / tu-inter-depth=4 / tu-intra-depth=4 / limit-tu=1 / rdoq-level=2 / dynamic-rd=0.00 / no-ssim-rd / signhide / no-tskip / nr-intra=0 / nr-inter=0 / no-constrained-intra / no-strong-intra-smoothing / max-merge=5 / limit-refs=3 / limit-modes / me=3 / subme=7 / merange=57 / temporal-mvp / no-hme / weightp / weightb / no-analyze-src-pics / deblock=-2:-2 / no-sao / no-sao-non-deblock / rd=6 / selective-sao=0 / no-early-skip / no-rskip / no-fast-intra / no-tskip-fast / no-cu-lossless / no-b-intra / no-splitrd-skip / rdpenalty=0 / psy-rd=2.00 / psy-rdoq=1.10 / no-rd-refine / no-lossless / cbqpoffs=0 / crqpoffs=0 / rc=crf / crf=20.0 / qcomp=0.72 / qpstep=4 / stats-write=0 / stats-read=0 / vbv-maxrate=50000 / vbv-bufsize=50000 / vbv-init=0.9 / crf-max=0.0 / crf-min=0.0 / ipratio=1.40 / pbratio=1.30 / aq-mode=4 / aq-strength=1.00 / no-cutree / zone-count=1 / zones: / start-frame=171180 / end-frame=181581 / qp=36 / no-strict-cbr / qg-size=32 / no-rc-grain / qpmax=69 / qpmin=0 / no-const-vbv / sar=1 / overscan=0 / videoformat=5 / range=0 / colorprim=1 / transfer=1 / colormatrix=1 / chromaloc=0 / display-window=0 / cll=0,0 / min-luma=0 / max-luma=1023 / log2-max-poc-lsb=8 / vui-timing-info / vui-hrd-info / slices=1 / no-opt-qp-pps / no-opt-ref-list-length-pps / no-multi-pass-opt-rps / scenecut-bias=0.05 / no-opt-cu-delta-qp / no-aq-motion / no-hdr / no-hdr-opt / no-dhdr10-opt / no-idr-recovery-sei / analysis-reuse-level=5 / scale-factor=0 / refine-intra=0 / refine-inter=0 / refine-mv=1 / refine-ctu-distortion=0 / no-limit-sao / ctu-info=0 / no-lowpass-dct / refine-analysis-type=0 / copy-pic=1 / max-ausize-factor=1.0 / no-dynamic-refine / no-single-sei / no-hevc-aq / no-svt / no-field / qp-adaptation-range=1.00Language                    : EnglishDefault                     : YesForced                      : NoColor range                 : LimitedColor primaries             : BT.709Transfer characteristics    : BT.709Matrix coefficients         : BT.709Audio #1ID                          : 2Format                      : AC-3Format/Info                 : Audio Coding 3Commercial name             : Dolby DigitalCodec ID                    : A_AC3Duration                    : 2 h 6 minBit rate mode               : ConstantBit rate                    : 640 kb/sChannel(s)                  : 6 channelsChannel layout              : L R C LFE Ls RsSampling rate               : 48.0 kHzFrame rate                  : 31.250 FPS (1536 SPF)Bit depth                   : 16 bitsCompression mode            : LossyStream size                 : 578 MiB (8%)Title                       : DUBLanguage                    : RussianService kind                : Complete MainDefault                     : YesForced                      : NoAudio #2ID                          : 3Format                      : AC-3Format/Info                 : Audio Coding 3Commercial name             : Dolby DigitalCodec ID                    : A_AC3Duration                    : 2 h 6 minBit rate mode               : ConstantBit rate                    : 640 kb/sChannel(s)                  : 6 channelsChannel layout              : L R C LFE Ls RsSampling rate               : 48.0 kHzFrame rate                  : 31.250 FPS (1536 SPF)Bit depth                   : 16 bitsCompression mode            : LossyStream size                 : 578 MiB (8%)Title                       : AVO ЖивовLanguage                    : RussianService kind                : Complete MainDefault                     : NoForced                      : NoAudio #3ID                          : 4Format                      : AC-3Format/Info                 : Audio Coding 3Commercial name             : Dolby DigitalCodec ID                    : A_AC3Duration                    : 2 h 6 minBit rate mode               : ConstantBit rate                    : 640 kb/sChannel(s)                  : 6 channelsChannel layout              : L R C LFE Ls RsSampling rate               : 48.0 kHzFrame rate                  : 31.250 FPS (1536 SPF)Bit depth                   : 16 bitsCompression mode            : LossyStream size                 : 578 MiB (8%)Title                       : AVO ЕсаревLanguage                    : RussianService kind                : Complete MainDefault                     : NoForced                      : NoAudio #4ID                          : 5Format                      : AC-3Format/Info                 : Audio Coding 3Commercial name             : Dolby DigitalCodec ID                    : A_AC3Duration                    : 2 h 6 minBit rate mode               : ConstantBit rate                    : 640 kb/sChannel(s)                  : 6 channelsChannel layout              : L R C LFE Ls RsSampling rate               : 48.0 kHzFrame rate                  : 31.250 FPS (1536 SPF)Bit depth                   : 16 bitsCompression mode            : LossyStream size                 : 578 MiB (8%)Language                    : EnglishService kind                : Complete MainDefault                     : NoForced                      : NoText #1ID                          : 6Format                      : UTF-8Codec ID                    : S_TEXT/UTF8Codec ID/Info               : UTF-8 Plain TextDuration                    : 11 min 15 sBit rate                    : 12 b/sCount of elements           : 23Stream size                 : 1.03 KiB (0%)Title                       : forcedLanguage                    : RussianDefault                     : NoForced                      : NoText #2ID                          : 7Format                      : UTF-8Codec ID                    : S_TEXT/UTF8Codec ID/Info               : UTF-8 Plain TextDuration                    : 1 h 57 minBit rate                    : 71 b/sCount of elements           : 1106Stream size                 : 61.2 KiB (0%)Title                       : fullLanguage                    : RussianDefault                     : NoForced                      : NoText #3ID                          : 8Format                      : UTF-8Codec ID                    : S_TEXT/UTF8Codec ID/Info               : UTF-8 Plain TextDuration                    : 2 h 4 minBit rate                    : 46 b/sCount of elements           : 1452Stream size                 : 42.5 KiB (0%)Language                    : EnglishDefault                     : NoForced                      : NoMenu00:00:00.000                : en:100:12:43.000                : en:200:21:05.000                : en:300:32:32.000                : en:400:43:09.000                : en:500:56:48.000                : en:601:06:48.000                : en:701:14:13.000                : en:801:23:44.000                : en:901:36:37.000                : en:1001:46:57.000                : en:1101:58:59.000                : en:12
https://img15.lostpic.net/2020/01/07/e6555eba7931ebdb22f8eeff773c842d.th.png https://img16.lostpic.net/2020/01/07/e35cf2c9ade8d703eeb91fe4e657ccaf.th.png https://img15.lostpic.net/2020/01/07/ea5e5f96346721006f15791ba3115937.th.png https://img16.lostpic.net/2020/01/07/64b934d8c9734efd53985e0fb3ca1480.th.png https://img15.lostpic.net/2020/01/07/9cda99ec8154d3bca5d945469e180a19.th.png https://img16.lostpic.net/2020/01/07/8bdb10e31f915676e0f027456836d181.th.png https://img15.lostpic.net/2020/01/07/9b76bb300f6d2c522fe36b2f25f84e5e.th.png https://img16.lostpic.net/2020/01/07/5d0a5ffe71c804080377e63c82a0cebc.th.png  
http://korsar.tv/images/Banner-Korsar.gif http://korsar.tv/img/VKontakte.png  
Похожих раздач нет


Привет, гость
- Запомнить
Регистрация
Информация

Торрент трекер ExKinoRay.TV

Здесь вы можете скачать новые фильмы, сериалы, игры, музыку, софт и многое другое. Большая скорость скачивания на мультитрекерных раздачах. Всё абсолютно бесплатно.