Твин Пикс | Twin Peaks (3 сезон: 01-18 серии из 18) | 2017 | BDRip-HEVC (1080p) | Dub, MVO, AVO - KORSAR Одобрено администрацией

Участники
  • Раздают0
  • Качают5
  • Просмотров19
  • Скачали0
  • Комментариев0
  • Список файлов18
Залил раздачу
Поблагодарить
Никто
Характеристики
Вес53.37 GB (57,309,802,373)
Залит2020-03-27 15:49:28 Обновлено2020-03-28 01:34:32
Сетевая Нет
Чтобы скачать, необходимо авторизоваться или зарегистрироваться.
Статус: Одобрено администрацией
Хотите видеть детали Раздачи пройдите авторизацию или регистрацию!

Спасибо за понимание...
Просьба отключить блокировщики рекламы на странице скриншотов по адресу: http://3.lostpic.net/, этим Вы поможете существованию проекта. Заранее спасибо!
x265 [info]: frame I:    571, Avg QP:18.25  kb/s: 29223.99x265 [info]: frame P:  14637, Avg QP:19.64  kb/s: 12905.82x265 [info]: frame B:  71957, Avg QP:21.70  kb/s: 2618.10 x265 [info]: consecutive B-frames: 5.6% 1.2% 2.9% 28.0% 8.3% 29.1% 6.6% 7.2% 3.6% 2.4% 1.2% 1.1% 0.7% 0.3% 0.5% 0.6% 0.6% GeneralUnique ID                   : 212131843597442635236766287486579611562 (0x9F971B62A9E7A92F7DF27FE6027797AA)Complete name               : H:\HEVC4\Twin peaks\Twin Peaks. Season 3\Twin Peaks.S03E01.(2017).BDRip-HEVC.1080p - KORSAR.mkvFormat                      : MatroskaFormat version              : Version 4 / Version 2File size                   : 2.88 GiBDuration                    : 1 h 0 minOverall bit rate            : 6 796 kb/sMovie name                  : Twin Peaks. 3 Season (2017)_rip_by_CthulhuEncoded date                : UTC 2020-01-02 09:10:35Writing application         : mkvmerge v37.0.0 ('Leave It') 64-bitWriting library             : libebml v1.3.9 + libmatroska v1.5.2Cover                       : YesAttachments                 : cover3.jpgVideoID                          : 1Format                      : HEVCFormat/Info                 : High Efficiency Video CodingFormat profile              : Main 10@L4.1@HighCodec ID                    : V_MPEGH/ISO/HEVCDuration                    : 1 h 0 minBit rate                    : 4 521 kb/sWidth                       : 1 920 pixelsHeight                      : 1 080 pixelsDisplay aspect ratio        : 16:9Frame rate mode             : ConstantFrame rate                  : 23.976 (24000/1001) FPSColor space                 : YUVChroma subsampling          : 4:2:0Bit depth                   : 10 bitsBits/(Pixel*Frame)          : 0.091Stream size                 : 1.91 GiB (67%)Writing library             : x265 3.2+5-a3a088a7262f:[Windows][GCC 9.2.0][64 bit] 10bitEncoding settings           : cpuid=1111039 / frame-threads=4 / numa-pools=16 / wpp / no-pmode / no-pme / no-psnr / no-ssim / log-level=2 / input-csp=1 / input-res=1920x1080 / interlace=0 / total-frames=87165 / level-idc=41 / high-tier=1 / uhd-bd=0 / ref=5 / no-allow-non-conformance / no-repeat-headers / annexb / no-aud / no-hrd / info / hash=0 / no-temporal-layers / open-gop / min-keyint=23 / keyint=240 / gop-lookahead=0 / bframes=16 / b-adapt=2 / b-pyramid / bframe-bias=0 / rc-lookahead=60 / lookahead-slices=1 / scenecut=40 / radl=0 / no-splice / no-intra-refresh / ctu=32 / min-cu-size=8 / rect / amp / max-tu-size=32 / tu-inter-depth=4 / tu-intra-depth=4 / limit-tu=1 / rdoq-level=2 / dynamic-rd=0.00 / no-ssim-rd / signhide / no-tskip / nr-intra=0 / nr-inter=0 / no-constrained-intra / no-strong-intra-smoothing / max-merge=5 / limit-refs=3 / limit-modes / me=3 / subme=7 / merange=57 / temporal-mvp / no-hme / weightp / weightb / no-analyze-src-pics / deblock=-2:-2 / no-sao / no-sao-non-deblock / rd=6 / selective-sao=0 / no-early-skip / no-rskip / no-fast-intra / no-tskip-fast / no-cu-lossless / no-b-intra / no-splitrd-skip / rdpenalty=0 / psy-rd=2.00 / psy-rdoq=1.10 / no-rd-refine / no-lossless / cbqpoffs=0 / crqpoffs=0 / rc=crf / crf=20.0 / qcomp=0.62 / qpstep=4 / stats-write=0 / stats-read=0 / vbv-maxrate=50000 / vbv-bufsize=50000 / vbv-init=0.9 / crf-max=0.0 / crf-min=0.0 / ipratio=1.40 / pbratio=1.30 / aq-mode=1 / aq-strength=1.00 / no-cutree / zone-count=0 / no-strict-cbr / qg-size=32 / no-rc-grain / qpmax=69 / qpmin=0 / no-const-vbv / sar=1 / overscan=0 / videoformat=5 / range=0 / colorprim=1 / transfer=1 / colormatrix=1 / chromaloc=0 / display-window=0 / cll=0,0 / min-luma=0 / max-luma=1023 / log2-max-poc-lsb=8 / vui-timing-info / vui-hrd-info / slices=1 / no-opt-qp-pps / no-opt-ref-list-length-pps / no-multi-pass-opt-rps / scenecut-bias=0.05 / no-opt-cu-delta-qp / no-aq-motion / no-hdr / no-hdr-opt / no-dhdr10-opt / no-idr-recovery-sei / analysis-reuse-level=5 / scale-factor=0 / refine-intra=0 / refine-inter=0 / refine-mv=1 / refine-ctu-distortion=0 / no-limit-sao / ctu-info=0 / no-lowpass-dct / refine-analysis-type=0 / copy-pic=1 / max-ausize-factor=1.0 / no-dynamic-refine / no-single-sei / hevc-aq / no-svt / no-field / qp-adaptation-range=2.00Language                    : EnglishDefault                     : YesForced                      : NoColor range                 : LimitedColor primaries             : BT.709Transfer characteristics    : BT.709Matrix coefficients         : BT.709Audio #1ID                          : 2Format                      : AC-3Format/Info                 : Audio Coding 3Commercial name             : Dolby DigitalCodec ID                    : A_AC3Duration                    : 1 h 0 minBit rate mode               : ConstantBit rate                    : 224 kb/sChannel(s)                  : 2 channelsChannel layout              : L RSampling rate               : 48.0 kHzFrame rate                  : 31.250 FPS (1536 SPF)Bit depth                   : 16 bitsCompression mode            : LossyStream size                 : 97.1 MiB (3%)Title                       : DUB (ТВ-3)Language                    : RussianService kind                : Complete MainDefault                     : YesForced                      : NoAudio #2ID                          : 3Format                      : AC-3Format/Info                 : Audio Coding 3Commercial name             : Dolby DigitalCodec ID                    : A_AC3Duration                    : 1 h 0 minBit rate mode               : ConstantBit rate                    : 384 kb/sChannel(s)                  : 6 channelsChannel layout              : L R C LFE Ls RsSampling rate               : 48.0 kHzFrame rate                  : 31.250 FPS (1536 SPF)Bit depth                   : 16 bitsCompression mode            : LossyStream size                 : 166 MiB (6%)Title                       : MVO (Amedia)Language                    : RussianService kind                : Complete MainDefault                     : NoForced                      : NoAudio #3ID                          : 4Format                      : AC-3Format/Info                 : Audio Coding 3Commercial name             : Dolby DigitalCodec ID                    : A_AC3Duration                    : 1 h 0 minBit rate mode               : ConstantBit rate                    : 384 kb/sChannel(s)                  : 2 channelsChannel layout              : L RSampling rate               : 48.0 kHzFrame rate                  : 31.250 FPS (1536 SPF)Bit depth                   : 16 bitsCompression mode            : LossyStream size                 : 166 MiB (6%)Title                       : MVO (LostFilm)Language                    : RussianService kind                : Complete MainDefault                     : NoForced                      : NoAudio #4ID                          : 5Format                      : AC-3Format/Info                 : Audio Coding 3Commercial name             : Dolby DigitalCodec ID                    : A_AC3Duration                    : 1 h 0 minBit rate mode               : ConstantBit rate                    : 640 kb/sChannel(s)                  : 6 channelsChannel layout              : L R C LFE Ls RsSampling rate               : 48.0 kHzFrame rate                  : 31.250 FPS (1536 SPF)Bit depth                   : 16 bitsCompression mode            : LossyStream size                 : 277 MiB (9%)Title                       : AVO (Сербин)Language                    : RussianService kind                : Complete MainDefault                     : NoForced                      : NoAudio #5ID                          : 6Format                      : AC-3Format/Info                 : Audio Coding 3Commercial name             : Dolby DigitalCodec ID                    : A_AC3Duration                    : 1 h 0 minBit rate mode               : ConstantBit rate                    : 640 kb/sChannel(s)                  : 6 channelsChannel layout              : L R C LFE Ls RsSampling rate               : 48.0 kHzFrame rate                  : 31.250 FPS (1536 SPF)Bit depth                   : 16 bitsCompression mode            : LossyStream size                 : 277 MiB (9%)Language                    : EnglishService kind                : Complete MainDefault                     : NoForced                      : NoText #1ID                          : 7Format                      : UTF-8Codec ID                    : S_TEXT/UTF8Codec ID/Info               : UTF-8 Plain TextDuration                    : 5 min 14 sBit rate                    : 9 b/sCount of elements           : 17Stream size                 : 375 Bytes (0%)Title                       : forcedLanguage                    : RussianDefault                     : NoForced                      : NoText #2ID                          : 8Format                      : UTF-8Codec ID                    : S_TEXT/UTF8Codec ID/Info               : UTF-8 Plain TextDuration                    : 59 min 52 sBit rate                    : 45 b/sCount of elements           : 427Stream size                 : 20.1 KiB (0%)Title                       : КисиленкоLanguage                    : RussianDefault                     : NoForced                      : NoText #3ID                          : 9Format                      : UTF-8Codec ID                    : S_TEXT/UTF8Codec ID/Info               : UTF-8 Plain TextDuration                    : 58 min 0 sBit rate                    : 41 b/sCount of elements           : 437Stream size                 : 17.6 KiB (0%)Title                       : AmediaLanguage                    : RussianDefault                     : NoForced                      : NoText #4ID                          : 10Format                      : UTF-8Codec ID                    : S_TEXT/UTF8Codec ID/Info               : UTF-8 Plain TextDuration                    : 1 h 0 minBit rate                    : 35 b/sCount of elements           : 689Stream size                 : 15.7 KiB (0%)Language                    : EnglishDefault                     : NoForced                      : NoMenu00:00:00.000                : en:00:00:00.00000:03:41.638                : en:00:03:41.63800:18:22.393                : en:00:18:22.39300:24:28.592                : en:00:24:28.59200:34:35.490                : en:00:34:35.49000:45:16.505                : en:00:45:16.50500:58:41.601                : en:00:58:41.601
https://img10.lostpic.net/2020/01/02/8e7ad8e9de06dd85690f3c1b36b82e0c.th.png https://img10.lostpic.net/2020/01/02/d55f86b331cbfab5a4b3408c54fcd759.th.png https://img10.lostpic.net/2020/01/02/bd5fcbd87130da9b90080537714870dd.th.png https://img10.lostpic.net/2020/01/02/51138795f93d8af3e2068097afa5372e.th.png https://img10.lostpic.net/2020/01/02/7560b07f9559a9e22ad6075df0e14b5c.th.png https://img10.lostpic.net/2020/01/02/54ad53060df38bd6be096af59c8af84e.th.png https://img10.lostpic.net/2020/01/02/c8695eb0c559d0d22beea9785a730ebc.th.png https://img10.lostpic.net/2020/01/02/7a0c64edf654b1f1e7da21e6d74421d1.th.png  
01 – My Log Has a Message for You
02 – The Stars Turn and a Time Presents Itself
03 – Call for Help
04 – Brings Back Some Memories
05 – Case Files
06 – Don't Die
07 – There's a Body All Right
08 – Gotta Light
09 – This Is the Chair
10 – Laura Is the One
11 – There's Fire Where You Are Going
12 – Let's Rock
13 – What Story is That Charlie
14 – We Are Like the Dreamer
15 – There's Some Fear in Letting Go
16 – No Knock No Doorbell
17 – The Past Dictates the Future
18 – What Is Your Name
http://korsar.tv/images/Banner-Korsar.gif http://korsar.tv/img/VKontakte.png  
Похожих раздач нет


Привет, гость
- Запомнить
Регистрация
Информация

Торрент трекер ExKinoRay.TV

Здесь вы можете скачать новые фильмы, сериалы, игры, музыку, софт и многое другое. Большая скорость скачивания на мультитрекерных раздачах. Всё абсолютно бесплатно.