Твин Пикс | Twin Peaks (1 Сезон: 01-08 серии из 08) | 1990 | BDRip-HEVC (1080p) - KORSAR Одобрено администрацией

Участники
  • Раздают3
  • Качают2
  • Просмотров22
  • Скачали0
  • Комментариев0
  • Список файлов8
Залил раздачу
Поблагодарить
Характеристики
Вес32.98 GB (35,408,400,619)
Залит2020-03-27 15:49:48 Обновлено2020-03-28 01:09:56
Сетевая Нет
Чтобы скачать, необходимо авторизоваться или зарегистрироваться.
Статус: Одобрено администрацией
Хотите видеть детали Раздачи пройдите авторизацию или регистрацию!

Спасибо за понимание...
Просьба отключить блокировщики рекламы на странице скриншотов по адресу: http://3.lostpic.net/, этим Вы поможете существованию проекта. Заранее спасибо!
x265 [info]: frame I:   1006, Avg QP:18.39  kb/s: 27049.59x265 [info]: frame P:  23298, Avg QP:19.58  kb/s: 19267.84x265 [info]: frame B: 110982, Avg QP:21.55  kb/s: 6092.97 x265 [info]: consecutive B-frames: 5.1% 1.3% 1.5% 8.1% 8.1% 66.2% 5.9% 3.0% 0.6% 0.2% 0.0% 0.2% GeneralUnique ID                   : 265013177961813127816512115657993224320 (0xC75FAE7766351E0861D2F19CBBBA0080)Complete name               : H:\HEVC4\Twin peaks\Twin Peaks. Season 1\Twin Peaks.S01E00.(1990).BDRip-HEVC.1080p - KORSAR.mkvFormat                      : MatroskaFormat version              : Version 4 / Version 2File size                   : 7.36 GiBDuration                    : 1 h 34 minOverall bit rate            : 11.2 Mb/sMovie name                  : Twin Peaks. 1 Season (1990)_rip_by_CthuhuEncoded date                : UTC 2019-10-26 19:39:06Writing application         : mkvmerge v37.0.0 ('Leave It') 64-bitWriting library             : libebml v1.3.9 + libmatroska v1.5.2Cover                       : YesAttachments                 : cover1.jpgVideoID                          : 1Format                      : HEVCFormat/Info                 : High Efficiency Video CodingFormat profile              : Main 10@L4.1@HighCodec ID                    : V_MPEGH/ISO/HEVCDuration                    : 1 h 34 minBit rate                    : 8 518 kb/sWidth                       : 1 440 pixelsHeight                      : 1 080 pixelsDisplay aspect ratio        : 4:3Frame rate mode             : ConstantFrame rate                  : 23.976 (24000/1001) FPSColor space                 : YUVChroma subsampling          : 4:2:0Bit depth                   : 10 bitsBits/(Pixel*Frame)          : 0.228Stream size                 : 5.60 GiB (76%)Writing library             : x265 3.0+1-ed72af837053:[Windows][MSVC 1916][64 bit] 10bitEncoding settings           : cpuid=1111039 / frame-threads=4 / numa-pools=16 / wpp / no-pmode / no-pme / no-psnr / no-ssim / log-level=2 / input-csp=1 / input-res=1440x1080 / interlace=0 / total-frames=135286 / level-idc=41 / high-tier=1 / uhd-bd=0 / ref=5 / no-allow-non-conformance / no-repeat-headers / annexb / no-aud / no-hrd / info / hash=0 / no-temporal-layers / open-gop / min-keyint=23 / keyint=240 / gop-lookahead=0 / bframes=11 / b-adapt=2 / b-pyramid / bframe-bias=0 / rc-lookahead=60 / lookahead-slices=1 / scenecut=40 / radl=0 / no-splice / no-intra-refresh / ctu=32 / min-cu-size=8 / rect / amp / max-tu-size=32 / tu-inter-depth=4 / tu-intra-depth=4 / limit-tu=1 / rdoq-level=2 / dynamic-rd=0.00 / no-ssim-rd / signhide / no-tskip / nr-intra=0 / nr-inter=0 / no-constrained-intra / no-strong-intra-smoothing / max-merge=5 / limit-refs=3 / limit-modes / me=3 / subme=7 / merange=57 / temporal-mvp / weightp / weightb / no-analyze-src-pics / deblock=-3:-2 / no-sao / no-sao-non-deblock / rd=6 / no-early-skip / no-rskip / no-fast-intra / no-tskip-fast / no-cu-lossless / no-b-intra / no-splitrd-skip / rdpenalty=0 / psy-rd=2.00 / psy-rdoq=1.15 / no-rd-refine / no-lossless / cbqpoffs=0 / crqpoffs=0 / rc=crf / crf=19.0 / qcomp=0.65 / qpstep=4 / stats-write=0 / stats-read=0 / vbv-maxrate=50000 / vbv-bufsize=50000 / vbv-init=0.9 / crf-max=0.0 / crf-min=0.0 / ipratio=1.40 / pbratio=1.30 / aq-mode=1 / aq-strength=1.00 / no-cutree / zone-count=0 / no-strict-cbr / qg-size=32 / no-rc-grain / qpmax=69 / qpmin=0 / no-const-vbv / sar=1 / overscan=0 / videoformat=5 / range=0 / colorprim=1 / transfer=1 / colormatrix=1 / chromaloc=0 / display-window=0 / max-cll=0,0 / min-luma=0 / max-luma=1023 / log2-max-poc-lsb=8 / vui-timing-info / vui-hrd-info / slices=1 / no-opt-qp-pps / no-opt-ref-list-length-pps / no-multi-pass-opt-rps / scenecut-bias=0.05 / no-opt-cu-delta-qp / no-aq-motion / no-hdr / no-hdr-opt / no-dhdr10-opt / no-idr-recovery-sei / analysis-reuse-level=5 / scale-factor=0 / refine-intra=0 / refine-inter=0 / refine-mv=0 / refine-ctu-distortion=0 / no-limit-sao / ctu-info=0 / no-lowpass-dct / refine-analysis-type=0 / copy-pic=1 / max-ausize-factor=1.0 / no-dynamic-refine / no-single-sei / hevc-aq / qp-adaptation-range=2.00Language                    : EnglishDefault                     : YesForced                      : NoColor range                 : LimitedColor primaries             : BT.709Transfer characteristics    : BT.709Matrix coefficients         : BT.709Audio #1ID                          : 2Format                      : AC-3Format/Info                 : Audio Coding 3Commercial name             : Dolby DigitalCodec ID                    : A_AC3Duration                    : 1 h 34 minBit rate mode               : ConstantBit rate                    : 192 kb/sChannel(s)                  : 2 channelsChannel layout              : L RSampling rate               : 48.0 kHzFrame rate                  : 31.250 FPS (1536 SPF)Bit depth                   : 16 bitsCompression mode            : LossyStream size                 : 129 MiB (2%)Title                       : MVO Sci-FiLanguage                    : RussianService kind                : Complete MainDefault                     : YesForced                      : NoAudio #2ID                          : 3Format                      : AC-3Format/Info                 : Audio Coding 3Commercial name             : Dolby DigitalCodec ID                    : A_AC3Duration                    : 1 h 34 minBit rate mode               : ConstantBit rate                    : 192 kb/sChannel(s)                  : 2 channelsChannel layout              : L RSampling rate               : 48.0 kHzFrame rate                  : 31.250 FPS (1536 SPF)Bit depth                   : 16 bitsCompression mode            : LossyStream size                 : 129 MiB (2%)Title                       : MVO ОРТLanguage                    : RussianService kind                : Complete MainDefault                     : NoForced                      : NoAudio #3ID                          : 4Format                      : AC-3Format/Info                 : Audio Coding 3Commercial name             : Dolby DigitalCodec ID                    : A_AC3Duration                    : 1 h 34 minBit rate mode               : ConstantBit rate                    : 192 kb/sChannel(s)                  : 2 channelsChannel layout              : L RSampling rate               : 48.0 kHzFrame rate                  : 31.250 FPS (1536 SPF)Bit depth                   : 16 bitsCompression mode            : LossyStream size                 : 129 MiB (2%)Title                       : MVO ТВ3Language                    : RussianService kind                : Complete MainDefault                     : NoForced                      : NoAudio #4ID                          : 5Format                      : AC-3Format/Info                 : Audio Coding 3Commercial name             : Dolby DigitalCodec ID                    : A_AC3Duration                    : 1 h 34 minBit rate mode               : ConstantBit rate                    : 448 kb/sChannel(s)                  : 6 channelsChannel layout              : L R C LFE Ls RsSampling rate               : 48.0 kHzFrame rate                  : 31.250 FPS (1536 SPF)Bit depth                   : 16 bitsCompression mode            : LossyStream size                 : 301 MiB (4%)Title                       : MVO NovaMediaLanguage                    : RussianService kind                : Complete MainDefault                     : NoForced                      : NoAudio #5ID                          : 6Format                      : AC-3Format/Info                 : Audio Coding 3Commercial name             : Dolby DigitalCodec ID                    : A_AC3Duration                    : 1 h 34 minBit rate mode               : ConstantBit rate                    : 384 kb/sChannel(s)                  : 2 channelsChannel layout              : L RSampling rate               : 48.0 kHzFrame rate                  : 31.250 FPS (1536 SPF)Bit depth                   : 16 bitsCompression mode            : LossyStream size                 : 258 MiB (3%)Title                       : MVO LostFilmLanguage                    : RussianService kind                : Complete MainDefault                     : NoForced                      : NoAudio #6ID                          : 7Format                      : AC-3Format/Info                 : Audio Coding 3Commercial name             : Dolby DigitalCodec ID                    : A_AC3Duration                    : 1 h 34 minBit rate mode               : ConstantBit rate                    : 448 kb/sChannel(s)                  : 6 channelsChannel layout              : L R C LFE Ls RsSampling rate               : 48.0 kHzFrame rate                  : 31.250 FPS (1536 SPF)Bit depth                   : 16 bitsCompression mode            : LossyStream size                 : 301 MiB (4%)Title                       : AVO СербинLanguage                    : RussianService kind                : Complete MainDefault                     : NoForced                      : NoAudio #7ID                          : 8Format                      : AC-3Format/Info                 : Audio Coding 3Commercial name             : Dolby DigitalCodec ID                    : A_AC3Duration                    : 1 h 34 minBit rate mode               : ConstantBit rate                    : 192 kb/sChannel(s)                  : 2 channelsChannel layout              : L RSampling rate               : 48.0 kHzFrame rate                  : 31.250 FPS (1536 SPF)Bit depth                   : 16 bitsCompression mode            : LossyStream size                 : 129 MiB (2%)Title                       : AVO ГавриловLanguage                    : RussianService kind                : Complete MainDefault                     : NoForced                      : NoAudio #8ID                          : 9Format                      : AC-3Format/Info                 : Audio Coding 3Commercial name             : Dolby DigitalCodec ID                    : A_AC3Duration                    : 1 h 34 minBit rate mode               : ConstantBit rate                    : 192 kb/sChannel(s)                  : 2 channelsChannel layout              : L RSampling rate               : 48.0 kHzFrame rate                  : 31.250 FPS (1536 SPF)Bit depth                   : 16 bitsCompression mode            : LossyStream size                 : 129 MiB (2%)Title                       : AVO СавченкоLanguage                    : RussianService kind                : Complete MainDefault                     : NoForced                      : NoAudio #9ID                          : 10Format                      : AC-3Format/Info                 : Audio Coding 3Commercial name             : Dolby DigitalCodec ID                    : A_AC3Duration                    : 1 h 34 minBit rate mode               : ConstantBit rate                    : 448 kb/sChannel(s)                  : 6 channelsChannel layout              : L R C LFE Ls RsSampling rate               : 48.0 kHzFrame rate                  : 31.250 FPS (1536 SPF)Bit depth                   : 16 bitsCompression mode            : LossyStream size                 : 301 MiB (4%)Language                    : EnglishService kind                : Complete MainDefault                     : NoForced                      : NoText #1ID                          : 11Format                      : UTF-8Codec ID                    : S_TEXT/UTF8Codec ID/Info               : UTF-8 Plain TextDuration                    : 1 h 29 minBit rate                    : 94 b/sCount of elements           : 874Stream size                 : 62.0 KiB (0%)Language                    : RussianDefault                     : NoForced                      : NoText #2ID                          : 12Format                      : UTF-8Codec ID                    : S_TEXT/UTF8Codec ID/Info               : UTF-8 Plain TextDuration                    : 1 h 29 minBit rate                    : 53 b/sCount of elements           : 1056Stream size                 : 35.1 KiB (0%)Language                    : EnglishDefault                     : NoForced                      : NoMenu00:00:00.000                : en:00:15:30.511                : en:00:27:31.148                : en:00:44:14.524                : en:00:52:44.286                : en:01:01:42.988                : en:01:09:13.356                : en:01:20:28.781                : en:01:33:13.628                : en:01:34:02.511                : en:
https://img10.lostpic.net/2020/01/02/54a4c53f28418ab01b2eb3ceb5272a43.th.png https://img10.lostpic.net/2020/01/02/2802895cfb4742c42203aa26ef1d3cdd.th.png https://img10.lostpic.net/2020/01/02/8e4c8d8f0fe5137b19eaff15f24f17ec.th.png https://img10.lostpic.net/2020/01/02/751015a44a35d866235ae0615b664849.th.png https://img10.lostpic.net/2020/01/02/454ea8df097b38f396edd44b34b0b1fe.th.png https://img10.lostpic.net/2020/01/02/771287c5dcc7ce928791430901ec868b.th.png https://img10.lostpic.net/2020/01/02/9586e9c6f815033823afacaa641dd867.th.png https://img10.lostpic.net/2020/01/02/7650d5cd12bf9cbb5ad7021732dc6f73.th.png  
00 – Происшествие на северо-западе (пилотная серия) / Northwest Passage (Pilot)
01 – Следы в никуда / Traces to Nowhere
02 – Дзен, или Умение поймать убийцу / Zen, or the Skill to Catch a Killer
03 – Покойся с болью / Rest in Pain
04 – Однорукий / The One-Armed Man
05 – Сны Купера / Cooper's Dreams
06 – Время осмысления / Realization Time
07 – Последний вечер / The Last Evening
http://korsar.tv/images/Banner-Korsar.gif http://korsar.tv/img/VKontakte.png  
Похожих раздач нет


Привет, гость
- Запомнить
Регистрация
Информация

Торрент трекер ExKinoRay.TV

Здесь вы можете скачать новые фильмы, сериалы, игры, музыку, софт и многое другое. Большая скорость скачивания на мультитрекерных раздачах. Всё абсолютно бесплатно.