Два ствола | 2 Guns | 2013 | BDRip-HEVC (1080p) | Dub, MVO, AVO - KORSAR Одобрено администрацией

Участники
  • Раздают1
  • Качают0
  • Просмотров19
  • Скачали1
  • Комментариев0
  • Список файлов1
Залил раздачу
Поблагодарить
Характеристики
Вес9.89 GB (10,617,328,094)
Залит2020-03-27 15:50:02 Обновлено2020-03-28 01:21:16
Сетевая Нет
Чтобы скачать, необходимо авторизоваться или зарегистрироваться.
Статус: Одобрено администрацией
Хотите видеть детали Раздачи пройдите авторизацию или регистрацию!

Спасибо за понимание...
Просьба отключить блокировщики рекламы на странице скриншотов по адресу: http://3.lostpic.net/, этим Вы поможете существованию проекта. Заранее спасибо!
x265 [info]: frame I:   1693, Avg QP:17.30  kb/s: 28979.05x265 [info]: frame P:  36896, Avg QP:18.91  kb/s: 16276.52x265 [info]: frame B: 118580, Avg QP:21.01  kb/s: 5415.03 x265 [info]: consecutive B-frames: 7.6% 2.5% 5.5% 59.7% 11.1% 12.4% 0.7% 0.4% 0.2% GeneralUnique ID                   : 18032087619261667651505883437360481546 (0xD90DA8F65CEBB93E2240C39E8CC050A)Complete name               : H:\HEVC4\Два ствола - 2 Guns (2013) BDRip-HEVC 1080p - KORSAR.mkvFormat                      : MatroskaFormat version              : Version 4 / Version 2File size                   : 9.89 GiBDuration                    : 1 h 49 minOverall bit rate            : 13.0 Mb/sMovie name                  : 2 Guns (2013)_rip_by_CthulhuEncoded date                : UTC 2019-12-28 16:06:48Writing application         : mkvmerge v37.0.0 ('Leave It') 64-bitWriting library             : libebml v1.3.9 + libmatroska v1.5.2Cover                       : YesAttachments                 : cover5.jpgVideoID                          : 1Format                      : HEVCFormat/Info                 : High Efficiency Video CodingFormat profile              : Main 10@L4.1@HighCodec ID                    : V_MPEGH/ISO/HEVCDuration                    : 1 h 49 minBit rate                    : 8 219 kb/sWidth                       : 1 920 pixelsHeight                      : 800 pixelsDisplay aspect ratio        : 2.40:1Frame rate mode             : ConstantFrame rate                  : 23.976 (24000/1001) FPSColor space                 : YUVChroma subsampling          : 4:2:0Bit depth                   : 10 bitsBits/(Pixel*Frame)          : 0.223Stream size                 : 6.27 GiB (63%)Writing library             : x265 3.2+5-a3a088a7262f:[Windows][GCC 9.2.0][64 bit] 10bitEncoding settings           : cpuid=1111039 / frame-threads=4 / numa-pools=16 / wpp / no-pmode / no-pme / no-psnr / no-ssim / log-level=2 / input-csp=1 / input-res=1920x800 / interlace=0 / total-frames=157169 / level-idc=41 / high-tier=1 / uhd-bd=0 / ref=5 / no-allow-non-conformance / no-repeat-headers / annexb / no-aud / no-hrd / info / hash=0 / no-temporal-layers / open-gop / min-keyint=23 / keyint=240 / gop-lookahead=0 / bframes=8 / b-adapt=2 / b-pyramid / bframe-bias=0 / rc-lookahead=60 / lookahead-slices=1 / scenecut=40 / radl=0 / no-splice / no-intra-refresh / ctu=32 / min-cu-size=8 / rect / amp / max-tu-size=32 / tu-inter-depth=4 / tu-intra-depth=4 / limit-tu=1 / rdoq-level=2 / dynamic-rd=0.00 / no-ssim-rd / signhide / no-tskip / nr-intra=0 / nr-inter=0 / no-constrained-intra / strong-intra-smoothing / max-merge=5 / limit-refs=3 / limit-modes / me=3 / subme=7 / merange=57 / temporal-mvp / no-hme / weightp / weightb / no-analyze-src-pics / deblock=-3:-3 / no-sao / no-sao-non-deblock / rd=6 / selective-sao=0 / no-early-skip / no-rskip / no-fast-intra / no-tskip-fast / no-cu-lossless / b-intra / no-splitrd-skip / rdpenalty=0 / psy-rd=2.00 / psy-rdoq=1.00 / no-rd-refine / no-lossless / cbqpoffs=0 / crqpoffs=0 / rc=crf / crf=19.0 / qcomp=0.67 / qpstep=4 / stats-write=0 / stats-read=0 / vbv-maxrate=50000 / vbv-bufsize=50000 / vbv-init=0.9 / crf-max=0.0 / crf-min=0.0 / ipratio=1.40 / pbratio=1.30 / aq-mode=4 / aq-strength=0.70 / no-cutree / zone-count=0 / no-strict-cbr / qg-size=32 / no-rc-grain / qpmax=69 / qpmin=0 / no-const-vbv / sar=1 / overscan=0 / videoformat=5 / range=0 / colorprim=1 / transfer=1 / colormatrix=1 / chromaloc=0 / display-window=0 / cll=0,0 / min-luma=0 / max-luma=1023 / log2-max-poc-lsb=8 / vui-timing-info / vui-hrd-info / slices=1 / no-opt-qp-pps / no-opt-ref-list-length-pps / no-multi-pass-opt-rps / scenecut-bias=0.05 / no-opt-cu-delta-qp / no-aq-motion / no-hdr / no-hdr-opt / no-dhdr10-opt / no-idr-recovery-sei / analysis-reuse-level=5 / scale-factor=0 / refine-intra=0 / refine-inter=0 / refine-mv=1 / refine-ctu-distortion=0 / no-limit-sao / ctu-info=0 / no-lowpass-dct / refine-analysis-type=0 / copy-pic=1 / max-ausize-factor=1.0 / no-dynamic-refine / no-single-sei / no-hevc-aq / no-svt / no-field / qp-adaptation-range=1.00Language                    : EnglishDefault                     : YesForced                      : NoColor range                 : LimitedColor primaries             : BT.709Transfer characteristics    : BT.709Matrix coefficients         : BT.709Audio #1ID                          : 2Format                      : AC-3Format/Info                 : Audio Coding 3Commercial name             : Dolby DigitalCodec ID                    : A_AC3Duration                    : 1 h 49 minBit rate mode               : ConstantBit rate                    : 640 kb/sChannel(s)                  : 6 channelsChannel layout              : L R C LFE Ls RsSampling rate               : 48.0 kHzFrame rate                  : 31.250 FPS (1536 SPF)Bit depth                   : 16 bitsCompression mode            : LossyStream size                 : 500 MiB (5%)Title                       : DUB (BD CEE)Language                    : RussianService kind                : Complete MainDefault                     : YesForced                      : NoAudio #2ID                          : 3Format                      : AC-3Format/Info                 : Audio Coding 3Commercial name             : Dolby DigitalCodec ID                    : A_AC3Duration                    : 1 h 49 minBit rate mode               : ConstantBit rate                    : 448 kb/sChannel(s)                  : 6 channelsChannel layout              : L R C LFE Ls RsSampling rate               : 48.0 kHzFrame rate                  : 31.250 FPS (1536 SPF)Bit depth                   : 16 bitsCompression mode            : LossyStream size                 : 350 MiB (3%)Title                       : MVO (ТО "Рыжий пес)Language                    : RussianService kind                : Complete MainDefault                     : NoForced                      : NoAudio #3ID                          : 4Format                      : AC-3Format/Info                 : Audio Coding 3Commercial name             : Dolby DigitalCodec ID                    : A_AC3Duration                    : 1 h 49 minBit rate mode               : ConstantBit rate                    : 640 kb/sChannel(s)                  : 6 channelsChannel layout              : L R C LFE Ls RsSampling rate               : 48.0 kHzFrame rate                  : 31.250 FPS (1536 SPF)Bit depth                   : 16 bitsCompression mode            : LossyStream size                 : 500 MiB (5%)Title                       : AVO (Сербин)Language                    : RussianService kind                : Complete MainDefault                     : NoForced                      : NoAudio #4ID                          : 5Format                      : AC-3Format/Info                 : Audio Coding 3Commercial name             : Dolby DigitalCodec ID                    : A_AC3Duration                    : 1 h 49 minBit rate mode               : ConstantBit rate                    : 640 kb/sChannel(s)                  : 6 channelsChannel layout              : L R C LFE Ls RsSampling rate               : 48.0 kHzFrame rate                  : 31.250 FPS (1536 SPF)Bit depth                   : 16 bitsCompression mode            : LossyStream size                 : 500 MiB (5%)Title                       : AVO (Володарский)Language                    : RussianService kind                : Complete MainDefault                     : NoForced                      : NoAudio #5ID                          : 6Format                      : AC-3Format/Info                 : Audio Coding 3Commercial name             : Dolby DigitalCodec ID                    : A_AC3Duration                    : 1 h 49 minBit rate mode               : ConstantBit rate                    : 640 kb/sChannel(s)                  : 6 channelsChannel layout              : L R C LFE Ls RsSampling rate               : 48.0 kHzFrame rate                  : 31.250 FPS (1536 SPF)Bit depth                   : 16 bitsCompression mode            : LossyStream size                 : 500 MiB (5%)Title                       : AVO (Яроцкий)Language                    : RussianService kind                : Complete MainDefault                     : NoForced                      : NoAudio #6ID                          : 7Format                      : AC-3Format/Info                 : Audio Coding 3Commercial name             : Dolby DigitalCodec ID                    : A_AC3Duration                    : 1 h 49 minBit rate mode               : ConstantBit rate                    : 448 kb/sChannel(s)                  : 6 channelsChannel layout              : L R C LFE Ls RsSampling rate               : 48.0 kHzFrame rate                  : 31.250 FPS (1536 SPF)Bit depth                   : 16 bitsCompression mode            : LossyStream size                 : 350 MiB (3%)Title                       : AVO (Гаврилов)Language                    : RussianService kind                : Complete MainDefault                     : NoForced                      : NoAudio #7ID                          : 8Format                      : AC-3Format/Info                 : Audio Coding 3Commercial name             : Dolby DigitalCodec ID                    : A_AC3Duration                    : 1 h 49 minBit rate mode               : ConstantBit rate                    : 640 kb/sChannel(s)                  : 6 channelsChannel layout              : L R C LFE Ls RsSampling rate               : 48.0 kHzFrame rate                  : 31.250 FPS (1536 SPF)Bit depth                   : 16 bitsCompression mode            : LossyStream size                 : 500 MiB (5%)Title                       : DUB (BD CEE)Language                    : UkrainianService kind                : Complete MainDefault                     : NoForced                      : NoAudio #8ID                          : 9Format                      : AC-3Format/Info                 : Audio Coding 3Commercial name             : Dolby DigitalCodec ID                    : A_AC3Duration                    : 1 h 49 minBit rate mode               : ConstantBit rate                    : 640 kb/sChannel(s)                  : 6 channelsChannel layout              : L R C LFE Ls RsSampling rate               : 48.0 kHzFrame rate                  : 31.250 FPS (1536 SPF)Bit depth                   : 16 bitsCompression mode            : LossyStream size                 : 500 MiB (5%)Language                    : EnglishService kind                : Complete MainDefault                     : NoForced                      : NoText #1ID                          : 10Format                      : UTF-8Codec ID                    : S_TEXT/UTF8Codec ID/Info               : UTF-8 Plain TextDuration                    : 1 h 1 minBit rate                    : 1 b/sCount of elements           : 9Stream size                 : 692 Bytes (0%)Title                       : forcedLanguage                    : RussianDefault                     : NoForced                      : NoText #2ID                          : 11Format                      : UTF-8Codec ID                    : S_TEXT/UTF8Codec ID/Info               : UTF-8 Plain TextDuration                    : 1 h 47 minBit rate                    : 76 b/sCount of elements           : 1464Stream size                 : 60.4 KiB (0%)Title                       : BD CEELanguage                    : RussianDefault                     : NoForced                      : NoText #3ID                          : 12Format                      : UTF-8Codec ID                    : S_TEXT/UTF8Codec ID/Info               : UTF-8 Plain TextDuration                    : 1 h 39 minBit rate                    : 104 b/sCount of elements           : 1375Stream size                 : 75.8 KiB (0%)Title                       : voronineLanguage                    : RussianDefault                     : NoForced                      : NoText #4ID                          : 13Format                      : UTF-8Codec ID                    : S_TEXT/UTF8Codec ID/Info               : UTF-8 Plain TextDuration                    : 1 h 39 minBit rate                    : 69 b/sCount of elements           : 1611Stream size                 : 50.8 KiB (0%)Language                    : EnglishDefault                     : NoForced                      : NoText #5ID                          : 14Format                      : UTF-8Codec ID                    : S_TEXT/UTF8Codec ID/Info               : UTF-8 Plain TextDuration                    : 1 h 40 minBit rate                    : 74 b/sCount of elements           : 1789Stream size                 : 55.0 KiB (0%)Title                       : SDHLanguage                    : EnglishDefault                     : NoForced                      : NoMenu00:00:00.000                : en:Chapter 0100:05:36.044                : en:Chapter 0200:10:44.185                : en:Chapter 0300:15:15.205                : en:Chapter 0400:20:42.282                : en:Chapter 0500:24:47.736                : en:Chapter 0600:29:20.842                : en:Chapter 0700:36:24.098                : en:Chapter 0800:40:56.370                : en:Chapter 0900:45:39.278                : en:Chapter 1000:52:17.050                : en:Chapter 1100:58:13.781                : en:Chapter 1201:05:49.987                : en:Chapter 1301:10:28.682                : en:Chapter 1401:14:35.387                : en:Chapter 1501:20:14.559                : en:Chapter 1601:24:46.915                : en:Chapter 1701:31:11.924                : en:Chapter 1801:38:23.647                : en:Chapter 1901:41:02.639                : en:Chapter 20
https://img15.lostpic.net/2019/12/28/f40300ccfb916f4b9e91466c69634c39.th.png https://img16.lostpic.net/2019/12/28/05fbb1a8b8ba856f9bc07a66a78c5e39.th.png https://img15.lostpic.net/2019/12/28/f05c540f4892d2745918f9a1c29d4f0b.th.png https://img16.lostpic.net/2019/12/28/6a80f9a53f7814646fb30d6a8d870abd.th.png https://img15.lostpic.net/2019/12/28/05b8f78937a93dfeccd6067658baabfe.th.png https://img16.lostpic.net/2019/12/28/3841c709be6dec3325a3621e0b74f629.th.png https://img15.lostpic.net/2019/12/28/32a59e46cf372f971ce2f83fa5c31988.th.png https://img16.lostpic.net/2019/12/28/865cec08ff88bc57879e3cc5060b849d.th.png  
http://korsar.tv/images/Banner-Korsar.gif http://korsar.tv/img/VKontakte.png  
Похожих раздач нет


Привет, гость
- Запомнить
Регистрация
Информация

Торрент трекер ExKinoRay.TV

Здесь вы можете скачать новые фильмы, сериалы, игры, музыку, софт и многое другое. Большая скорость скачивания на мультитрекерных раздачах. Всё абсолютно бесплатно.