Идеальный муж | 1980 | DVDRip (AVC) - KORSAR Одобрено администрацией

Участники
  • Раздают0
  • Качают0
  • Просмотров26
  • Скачали0
  • Комментариев0
  • Список файлов1
Залил раздачу
Поблагодарить
Характеристики
Вес1.23 GB (1,317,575,500)
Залит2020-03-27 16:39:59 Обновлено2020-03-29 06:26:55
Сетевая Нет
Чтобы скачать, необходимо авторизоваться или зарегистрироваться.
Статус: Одобрено администрацией
Хотите видеть детали Раздачи пройдите авторизацию или регистрацию!

Спасибо за понимание...
Просьба отключить блокировщики рекламы на странице скриншотов по адресу: http://3.lostpic.net/, этим Вы поможете существованию проекта. Заранее спасибо!
x264 [info]: frame I:704   Avg QP:16.35  size: 56633x264 [info]: frame P:31134 Avg QP:18.18  size: 23241x264 [info]: frame B:99683 Avg QP:20.90  size:  3856x264 [info]: consecutive B-frames:  2.0%  4.2% 13.1% 20.5% 24.7% 29.3%  4.2%  1.5%  0.3%  0.2%  0.0%  0.0%GeneralUnique ID                                : 112551918771963254536665140773369248618 (0x54ACB6086DD32DE4A240C956996D7B6A)Complete name                            : S:\FILMS\Идеальный муж (1980) DVDRip-AVC  - KORSAR.mkvFormat                                   : MatroskaFormat version                           : Version 4 / Version 2File size                                : 1.23 GiBDuration                                 : 1 h 27 minOverall bit rate                         : 2 004 kb/sMovie name                               : Идеальный муж (1980)_rip_by_CthulhuEncoded date                             : UTC 2019-04-01 09:37:59Writing application                      : mkvmerge v28.2.0 ('The Awakening') 64-bitWriting library                          : libebml v1.3.6 + libmatroska v1.4.9Cover                                    : YesAttachments                              : cover77.jpgVideoID                                       : 1Format                                   : AVCFormat/Info                              : Advanced Video CodecFormat profile                           : High@L4.1Format settings, CABAC                   : YesFormat settings, RefFrames               : 12 framesCodec ID                                 : V_MPEG4/ISO/AVCDuration                                 : 1 h 27 minBit rate                                 : 1 746 kb/sWidth                                    : 700 pixelsHeight                                   : 408 pixelsDisplay aspect ratio                     : 1.912Original display aspect ratio            : 1.913Frame rate mode                          : ConstantFrame rate                               : 25.000 FPSColor space                              : YUVChroma subsampling                       : 4:2:0Bit depth                                : 8 bitsScan type                                : ProgressiveBits/(Pixel*Frame)                       : 0.244Stream size                              : 1.07 GiB (87%)Writing library                          : x264 core 152 r2851kMod ba24899Encoding settings                        : cabac=1 / ref=12 / deblock=1:-2:-1 / analyse=0x3:0x133 / me=umh / subme=11 / psy=1 / fade_compensate=0.00 / psy_rd=1.03:0.05 / mixed_ref=1 / me_range=48 / chroma_me=1 / trellis=2 / 8x8dct=1 / cqm=0 / deadzone=21,11 / fast_pskip=1 / chroma_qp_offset=-3 / threads=13 / lookahead_threads=3 / sliced_threads=0 / nr=0 / decimate=1 / interlaced=0 / bluray_compat=0 / constrained_intra=0 / bframes=11 / b_pyramid=2 / b_adapt=2 / b_bias=0 / direct=3 / weightb=1 / open_gop=0 / weightp=2 / keyint=250 / keyint_min=25 / scenecut=40 / intra_refresh=0 / rc_lookahead=60 / rc=crf / mbtree=0 / crf=17.5000 / qcomp=0.60 / qpmin=0 / qpmax=39 / qpstep=4 / vbv_maxrate=50000 / vbv_bufsize=62500 / crf_max=0.0 / nal_hrd=none / filler=0 / ip_ratio=1.40 / pb_ratio=1.30 / aq=3:1.00Language                                 : RussianDefault                                  : YesForced                                   : NoColor range                              : LimitedColor primaries                          : BT.601 PALTransfer characteristics                 : BT.470 System B, BT.470 System GMatrix coefficients                      : BT.601AudioID                                       : 2Format                                   : AC-3Format/Info                              : Audio Coding 3Mode extension                           : CM (complete main)Format settings, Endianness              : BigCodec ID                                 : A_AC3Duration                                 : 1 h 27 minBit rate mode                            : ConstantBit rate                                 : 256 kb/sChannel(s)                               : 1 channelChannel positions                        : Front: CSampling rate                            : 48.0 kHzFrame rate                               : 31.250 FPS (1536 spf)Compression mode                         : LossyStream size                              : 161 MiB (13%)Language                                 : RussianDefault                                  : YesForced                                   : NoMenu00:00:00.000                             : en:Chapter 100:05:31.200                             : en:Chapter 200:17:20.760                             : en:Chapter 300:23:14.160                             : en:Chapter 400:29:47.160                             : en:Chapter 500:36:46.800                             : en:Chapter 600:44:02.320                             : en:Chapter 700:51:29.520                             : en:Chapter 801:01:01.560                             : en:Chapter 901:11:17.160                             : en:Chapter 1001:17:19.280                             : en:Chapter 1101:20:16.280                             : en:Chapter 12
http://img16.lostpic.net/2019/04/01/c5326472528f3a2db90564206af5e2c4.th.png http://img16.lostpic.net/2019/04/01/622545035d1cfd8aa01a03869ea88c4e.th.png http://img16.lostpic.net/2019/04/01/b8906e348f7320a2e8233549bc88bfbd.th.png http://img14.lostpic.net/2019/04/01/78843111dd4a40cbb4960f7f93a16db1.th.png http://img14.lostpic.net/2019/04/01/8f2b00c9a8ff29f8b0b2d423be487d9e.th.png http://img14.lostpic.net/2019/04/01/32ebdccbd7397006da77e515d09bb953.th.png http://img16.lostpic.net/2019/04/01/314b22823d729edd28427077c6ce830d.th.png http://img16.lostpic.net/2019/04/01/63895787fa394eab5cf6adc2130c4fc2.th.png  
http://korsar.tv/images/Banner-Korsar.gif http://korsar.tv/img/VKontakte.png  


Привет, гость
- Запомнить
Регистрация
Информация

Торрент трекер ExKinoRay.TV

Здесь вы можете скачать новые фильмы, сериалы, игры, музыку, софт и многое другое. Большая скорость скачивания на мультитрекерных раздачах. Всё абсолютно бесплатно.