Дорогая Елена Сергеевна | 1988 | DVDRip (AVC) - KORSAR Одобрено администрацией

Участники
  • Раздают1
  • Качают0
  • Просмотров59
  • Скачали0
  • Комментариев0
  • Список файлов1
Залил раздачу
Поблагодарить
Характеристики
Вес2.99 GB (3,210,839,582)
Залит2020-03-27 21:08:57 Обновлено2020-03-28 16:13:29
Сетевая Нет
Чтобы скачать, необходимо авторизоваться или зарегистрироваться.
Статус: Одобрено администрацией
Хотите видеть детали Раздачи пройдите авторизацию или регистрацию!

Спасибо за понимание...
Просьба отключить блокировщики рекламы на странице скриншотов по адресу: http://3.lostpic.net/, этим Вы поможете существованию проекта. Заранее спасибо!
x264 [info]: frame I:672   Avg QP:18.29  size: 79844x264 [info]: frame P:28607 Avg QP:19.72  size: 47124x264 [info]: frame B:103885 Avg QP:21.76  size: 16172ОбщееУникальный идентификатор                 : 238520271074546956824463647441984731420 (0xB371554F413DF5D59F0D02A8B1E4B91C)Полное имя                               : D:\Дорогая Елена Сергеевна_1988-DVDRip-AVC_KORSAR.mkvФормат                                   : MatroskaВерсия формата                           : Version 2Размер файла                             : 2,99 ГбайтПродолжительность                        : 1 ч. 28 м.Общий поток                              : 4822 Кбит/секНазвание фильма                          : Дорогая Елена Сергеевна_1988-DVDRip-AVC_KORSARДата кодирования                         : UTC 2017-11-10 14:47:39Программа кодирования                    : mkvmerge v5.8.0 ('No Sleep / Pillow') built on Sep  2 2012 15:37:04Библиотека кодирования                   : libebml v1.2.3 + libmatroska v1.3.0ВидеоИдентификатор                            : 1Формат                                   : AVCФормат/Информация                        : Advanced Video CodecПрофиль формата                          : High@L4.1Параметр CABAC формата                   : ДаПараметр RefFrames формата               : 16 кадровИдентификатор кодека                     : V_MPEG4/ISO/AVCПродолжительность                        : 1 ч. 28 м.Битрейт                                  : 4534 Кбит/секШирина                                   : 698 пикселейВысота                                   : 572 пикселяСоотношение сторон                       : 4:3Соотношение сторон в оригинале           : 4:3Режим частоты кадров                     : ПостоянныйЧастота кадров                           : 25,000 кадров/секЦветовое пространство                    : YUVСубдискретизация насыщенности            : 4:2:0Битовая глубина                          : 8 битТип развёртки                            : ПрогрессивнаяБит/(Пиксели*Кадры)                      : 0.454Размер потока                            : 2,81 Гбайт (94%)Библиотека кодирования                   : x264 core 148 r2744kMod b97ae06Настройки программы                      : cabac=1 / ref=16 / deblock=1:-2:-1 / analyse=0x3:0x133 / me=umh / subme=10 / psy=1 / fade_compensate=0.00 / psy_rd=1.05:0.10 / mixed_ref=1 / me_range=32 / chroma_me=1 / trellis=2 / 8x8dct=1 / cqm=0 / deadzone=21,11 / fast_pskip=1 / chroma_qp_offset=-3 / threads=12 / lookahead_threads=3 / sliced_threads=0 / nr=0 / decimate=1 / interlaced=0 / bluray_compat=0 / constrained_intra=0 / bframes=10 / b_pyramid=2 / b_adapt=2 / b_bias=0 / direct=1 / weightb=1 / open_gop=0 / weightp=2 / keyint=250 / keyint_min=25 / scenecut=40 / intra_refresh=0 / rc=crf / mbtree=0 / crf=17.7000 / qcomp=0.63 / qpmin=0 / qpmax=39 / qpstep=4 / ip_ratio=1.40 / pb_ratio=1.30 / aq=2:1.00Язык                                     : EnglishDefault                                  : ДаForced                                   : НетЦветовой диапазон                        : LimitedОсновные цвета                           : BT.601 PALХарактеристики трансфера                 : BT.470 System B, BT.470 System GКоэффициенты матрицы                     : BT.601АудиоИдентификатор                            : 2Формат                                   : AC-3Формат/Информация                        : Audio Coding 3Параметр Endianness формата              : BigИдентификатор кодека                     : A_AC3Продолжительность                        : 1 ч. 28 м.Вид битрейта                             : ПостоянныйБитрейт                                  : 192 Кбит/секКаналы                                   : 2 каналаРасположение каналов                     : Front: L RЧастота                                  : 48,0 КГцЧастота кадров                           : 31,250 кадров/сек (1536 SPF)Битовая глубина                          : 16 битМетод сжатия                             : С потерямиРазмер потока                            : 122 Мбайт (4%)Язык                                     : RussianServiceKind/String                       : Complete MainDefault                                  : ДаForced                                   : Нет
http://img12.lostpic.net/2017/11/10/e1f861fae973c8c9f30bb736e1baa716.th.png http://img12.lostpic.net/2017/11/10/bb0a2c392a877a9d7f6dff3931fe0e48.th.png http://img12.lostpic.net/2017/11/10/ee689d16c2f5d9e9622b377de8443dfa.th.png http://img12.lostpic.net/2017/11/10/26e494b67a7dc42e2ad3dfe187fce899.th.png  
http://korsar.tv/images/Banner-Korsar.gif http://korsar.tv/img/VKontakte.png  


Привет, гость
- Запомнить
Регистрация
Информация

Торрент трекер ExKinoRay.TV

Здесь вы можете скачать новые фильмы, сериалы, игры, музыку, софт и многое другое. Большая скорость скачивания на мультитрекерных раздачах. Всё абсолютно бесплатно.