Дождь в чужом городе | 1979 | SATRip (AVC) | - KORSAR Одобрено администрацией

Участники
  • Раздают1
  • Качают0
  • Просмотров37
  • Скачали0
  • Комментариев0
  • Список файлов2
Залил раздачу
Поблагодарить
Характеристики
Вес2.55 GB (2,742,837,459)
Залит2020-04-15 22:28:56 Обновлено2020-04-15 22:30:44
Сетевая Нет
Чтобы скачать, необходимо авторизоваться или зарегистрироваться.
Статус: Одобрено администрацией
Хотите видеть детали Раздачи пройдите авторизацию или регистрацию!

Спасибо за понимание...
Просьба отключить блокировщики рекламы на странице скриншотов по адресу: http://3.lostpic.net/, этим Вы поможете существованию проекта. Заранее спасибо!
x264 [info]: frame I:532   Avg QP:17.14  size: 73536x264 [info]: frame P:22688 Avg QP:18.89  size: 32116x264 [info]: frame B:77971 Avg QP:21.33  size:  7290x264 [info]: consecutive B-frames:  1.6%  2.0% 17.5% 12.7% 12.3% 50.8%  2.4%  0.5%  0.1%  0.1%  0.0%Общее
Уникальный идентификатор                 : 188489153830451658164856695144238137178 (0x8DCDB0C83D92DD85844DFC545F6DBF5A)
Полное имя                               : D:\Дождь в чужом городе_1980-SATRip-AVC_KORSAR\Дождь в чужом городе-1.mkv
Формат                                   : Matroska
Версия формата                           : Version 2
Размер файла                             : 1,34 Гбайт
Продолжительность                        : 1 ч. 7 м.
Общий поток                              : 2835 Кбит/сек
Дата кодирования                         : UTC 2020-04-07 09:29:16
Программа кодирования                    : mkvmerge v5.8.0 ('No Sleep / Pillow') built on Sep  2 2012 15:37:04
Библиотека кодирования                   : libebml v1.2.3 + libmatroska v1.3.0

Видео
Идентификатор                            : 1
Формат                                   : AVC
Формат/Информация                        : Advanced Video Codec
Профиль формата                          : High@L4.1
Настройки формата                        : CABAC / 14 Ref Frames
Параметр CABAC формата                   : Да
Параметр RefFrames формата               : 14 кадров
Идентификатор кодека                     : V_MPEG4/ISO/AVC
Продолжительность                        : 1 ч. 7 м.
Битрейт                                  : 2586 Кбит/сек
Ширина                                   : 704 пикселя
Высота                                   : 576 пикселей
Соотношение сторон                       : 4:3
Режим частоты кадров                     : Постоянный
Частота кадров                           : 25,000 кадров/сек
Стандарт вещания                         : PAL
Цветовое пространство                    : YUV
Субдискретизация насыщенности            : 4:2:0
Битовая глубина                          : 8 бит
Тип развёртки                            : Прогрессивная
Бит/(Пиксели*Кадры)                      : 0.255
Размер потока                            : 1,22 Гбайт (91%)
Библиотека кодирования                   : x264 core 152 r2851kMod ba24899
Настройки программы                      : cabac=1 / ref=14 / deblock=1:-2:-1 / analyse=0x3:0x133 / me=umh / subme=10 / psy=1 / fade_compensate=0.00 / psy_rd=1.03:0.10 / mixed_ref=1 / me_range=48 / chroma_me=1 / trellis=2 / 8x8dct=1 / cqm=0 / deadzone=21,11 / fast_pskip=1 / chroma_qp_offset=-3 / threads=4 / lookahead_threads=1 / sliced_threads=0 / nr=0 / decimate=1 / interlaced=0 / bluray_compat=0 / constrained_intra=0 / bframes=10 / b_pyramid=2 / b_adapt=2 / b_bias=0 / direct=1 / weightb=1 / open_gop=0 / weightp=2 / keyint=250 / keyint_min=25 / scenecut=40 / intra_refresh=0 / rc_lookahead=40 / rc=crf / mbtree=0 / crf=17.0000 / qcomp=0.63 / qpmin=0 / qpmax=33 / qpstep=4 / vbv_maxrate=50000 / vbv_bufsize=62500 / crf_max=0.0 / nal_hrd=none / filler=0 / ip_ratio=1.40 / pb_ratio=1.30 / aq=2:0.80
Язык                                     : English
Default                                  : Да
Forced                                   : Нет
Цветовой диапазон                        : Limited
Основные цвета                           : BT.601 PAL
Характеристики трансфера                 : BT.470 System B/G
Коэффициенты матрицы                     : BT.470 System B/G

Аудио
Идентификатор                            : 2
Формат                                   : AC-3
Формат/Информация                        : Audio Coding 3
Коммерческое название                    : Dolby Digital
Идентификатор кодека                     : A_AC3
Продолжительность                        : 1 ч. 7 м.
Вид битрейта                             : Постоянный
Битрейт                                  : 192 Кбит/сек
Каналы                                   : 2 канала
ChannelLayout                            : L R
Частота                                  : 48,0 КГц
Частота кадров                           : 31,250 кадров/сек (1536 SPF)
Метод сжатия                             : С потерями
Размер потока                            : 92,6 Мбайт (7%)
Язык                                     : Russian
ServiceKind/String                       : Complete Main
Default                                  : Да
Forced                                   : Нет

  https://img15.lostpic.net/2020/04/07/354c500c03631afc599bbcae2c8ddc79.th.png https://img15.lostpic.net/2020/04/07/b63bc06fabb7dcf91527137a992c0330.th.png https://img15.lostpic.net/2020/04/07/0b7ca3b56f7363d3edad221c168bb9f4.th.png https://img15.lostpic.net/2020/04/07/7884e1648916688cccc773dcd4c6e2e7.th.png  
http://korsar.tv/images/Banner-Korsar.gif http://korsar.tv/img/VKontakte.png  


Привет, гость
- Запомнить
Регистрация
Информация

Торрент трекер ExKinoRay.TV

Здесь вы можете скачать новые фильмы, сериалы, игры, музыку, софт и многое другое. Большая скорость скачивания на мультитрекерных раздачах. Всё абсолютно бесплатно.