Любовная лихорадка | Любовная песня для Бобби Лонга | A Love Song for Bobby Long | 2004 | BDRip (720p) | DVO, AVO - KORSAR Одобрено администрацией

Участники
  • Раздают1
  • Качают0
  • Просмотров39
  • Скачали5
  • Комментариев0
  • Список файлов1
Залил раздачу
Поблагодарить
Характеристики
Вес8.98 GB (9,640,762,948)
Залит2020-04-20 20:41:29 Обновлено2020-04-20 21:02:24
Сетевая Нет
Чтобы скачать, необходимо авторизоваться или зарегистрироваться.
Статус: Одобрено администрацией
Хотите видеть детали Раздачи пройдите авторизацию или регистрацию!

Спасибо за понимание...
Просьба отключить блокировщики рекламы на странице скриншотов по адресу: http://3.lostpic.net/, этим Вы поможете существованию проекта. Заранее спасибо!
***********************************************************
x264 [info]: frame I:1172  Avg QP:15.57  size:149826
x264 [info]: frame P:30204 Avg QP:17.33  size: 77235
x264 [info]: frame B:141213 Avg QP:19.45  size: 39487
***********************************************************
Формат                                   : Matroska
Версия формата                           : Version 2
Размер файла                             : 8,98 Гбайт
Продолжительность                        : 1 ч. 59 м.
Общий поток                              : 10,7 Мбит/сек
Название фильма                          : = Любовная лихорадка / A Love Song for Bobby Long (2004) BDRip 720p - KORSAR =
Дата кодирования                         : UTC 2020-04-05 08:06:47
Программа кодирования                    : mkvmerge v5.8.0 ('No Sleep / Pillow') built on Sep  2 2012 15:37:04
Библиотека кодирования                   : libebml v1.2.3 + libmatroska v1.3.0
Attachment                               : Yes

Видео
Идентификатор                            : 1
Формат                                   : AVC
Формат/Информация                        : Advanced Video Codec
Профиль формата                          : High@L4.1
Параметр CABAC формата                   : Да
Параметр ReFrames формата                : 9 кадров
Идентификатор кодека                     : V_MPEG4/ISO/AVC
Продолжительность                        : 1 ч. 59 м.
Битрейт                                  : 9000 Кбит/сек
Ширина                                   : 1280 пикселей
Высота                                   : 690 пикселей
Соотношение сторон                       : 1,85:1
Режим частоты кадров                     : Постоянный
Частота кадров                           : 24,000 кадра/сек
Цветовое пространство                    : YUV
Субдискретизация насыщенности            : 4:2:0
Битовая глубина                          : 8 бит
Тип развёртки                            : Прогрессивная
Бит/(Пиксели*Кадры)                      : 0.425
Размер потока                            : 7,35 Гбайт (82%)
Заголовок                                : Любовная лихорадка / A Love Song for Bobby Long (2004) BDRip 720p - KORSAR
Библиотека кодирования                   : x264 core 158 r2984 3759fcb
Настройки программы                      : cabac=1 / ref=9 / deblock=1:-3:-3 / analyse=0x3:0x113 / me=umh / subme=11 / psy=1 / psy_rd=1.00:0.02 / mixed_ref=1 / me_range=48 / chroma_me=1 / trellis=2 / 8x8dct=1 / cqm=0 / deadzone=21,11 / fast_pskip=0 / chroma_qp_offset=-3 / threads=12 / lookahead_threads=3 / sliced_threads=0 / nr=0 / decimate=0 / interlaced=0 / bluray_compat=0 / constrained_intra=0 / bframes=14 / b_pyramid=2 / b_adapt=2 / b_bias=0 / direct=3 / weightb=1 / open_gop=0 / weightp=2 / keyint=240 / keyint_min=24 / scenecut=40 / intra_refresh=0 / rc_lookahead=60 / rc=2pass / mbtree=0 / bitrate=9000 / ratetol=1.0 / qcomp=0.62 / qpmin=0 / qpmax=39 / qpstep=4 / cplxblur=20.0 / qblur=0.5 / vbv_maxrate=50000 / vbv_bufsize=62500 / nal_hrd=none / filler=0 / ip_ratio=1.25 / pb_ratio=1.30 / aq=3:0.80
Язык                                     : English
Default                                  : Да
Forced                                   : Нет
Основные цвета                           : BT.709
Характеристики трансфера                 : BT.709
Коэффициенты матрицы                     : BT.709

Аудио #1
Идентификатор                            : 2
Формат                                   : AC-3
Формат/Информация                        : Audio Coding 3
Расширение режима                        : CM (complete main)
Параметр Endianness формата              : Big
Идентификатор кодека                     : A_AC3
Продолжительность                        : 1 ч. 59 м.
Вид битрейта                             : Постоянный
Битрейт                                  : 448 Кбит/сек
Каналы                                   : 6 каналов
Расположение каналов                     : Front: L C R, Side: L R, LFE
Частота                                  : 48,0 КГц
Битовая глубина                          : 16 бит
Метод сжатия                             : С потерями
Размер потока                            : 384 Мбайт (4%)
Заголовок                                : DVO ( CP Digital )
Язык                                     : Russian
Default                                  : Да
Forced                                   : Нет

Аудио #2
Идентификатор                            : 3
Формат                                   : AC-3
Формат/Информация                        : Audio Coding 3
Расширение режима                        : CM (complete main)
Параметр Endianness формата              : Big
Идентификатор кодека                     : A_AC3
Продолжительность                        : 1 ч. 59 м.
Вид битрейта                             : Постоянный
Битрейт                                  : 448 Кбит/сек
Каналы                                   : 6 каналов
Расположение каналов                     : Front: L C R, Side: L R, LFE
Частота                                  : 48,0 КГц
Битовая глубина                          : 16 бит
Метод сжатия                             : С потерями
Размер потока                            : 384 Мбайт (4%)
Заголовок                                : DVO ( Tycoon )
Язык                                     : Russian
Default                                  : Нет
Forced                                   : Нет

Аудио #3
Идентификатор                            : 4
Формат                                   : AC-3
Формат/Информация                        : Audio Coding 3
Расширение режима                        : CM (complete main)
Параметр Endianness формата              : Big
Идентификатор кодека                     : A_AC3
Продолжительность                        : 1 ч. 59 м.
Вид битрейта                             : Постоянный
Битрейт                                  : 192 Кбит/сек
Каналы                                   : 2 канала
Расположение каналов                     : Front: L R
Частота                                  : 48,0 КГц
Битовая глубина                          : 16 бит
Метод сжатия                             : С потерями
Размер потока                            : 165 Мбайт (2%)
Заголовок                                : AVO ( Визгунов )
Язык                                     : Russian
Default                                  : Нет
Forced                                   : Нет

Аудио #4
Идентификатор                            : 5
Формат                                   : AC-3
Формат/Информация                        : Audio Coding 3
Расширение режима                        : CM (complete main)
Параметр Endianness формата              : Big
Идентификатор кодека                     : A_AC3
Продолжительность                        : 1 ч. 59 м.
Вид битрейта                             : Постоянный
Битрейт                                  : 640 Кбит/сек
Каналы                                   : 6 каналов
Расположение каналов                     : Front: L C R, Side: L R, LFE
Частота                                  : 48,0 КГц
Битовая глубина                          : 16 бит
Метод сжатия                             : С потерями
Размер потока                            : 549 Мбайт (6%)
Язык                                     : English
Default                                  : Нет
Forced                                   : Нет

Текст #1
Идентификатор                            : 6
Формат                                   : UTF-8
Идентификатор кодека                     : S_TEXT/UTF8
Идентификатор кодека/Информация          : UTF-8 Plain Text
Язык                                     : Russian
Default                                  : Нет
Forced                                   : Нет

Текст #2
Идентификатор                            : 7
Формат                                   : UTF-8
Идентификатор кодека                     : S_TEXT/UTF8
Идентификатор кодека/Информация          : UTF-8 Plain Text
Язык                                     : English
Default                                  : Нет
Forced                                   : Нет

Меню
00:00:00.000                             : en:00:00:00.000
00:09:43.500                             : en:00:09:43.500
00:19:08.625                             : en:00:19:08.625
00:29:24.125                             : en:00:29:24.125
00:38:30.208                             : en:00:38:30.208
00:49:21.375                             : en:00:49:21.375
01:04:28.625                             : en:01:04:28.625
01:12:04.791                             : en:01:12:04.791
01:19:09.083                             : en:01:19:09.083
01:29:31.416                             : en:01:29:31.416
01:39:17.124                             : en:01:39:17.124
01:48:36.333                             : en:01:48:36.333
https://img15.lostpic.net/2020/04/05/881792422515b14956398db3602f2130.th.png https://img15.lostpic.net/2020/04/05/4771244249aff4ff45d7b4b3f91f7f8a.th.png https://img15.lostpic.net/2020/04/05/932775b8707cb856924efac8e18f1a82.th.png https://img15.lostpic.net/2020/04/05/51a4d3e46f8bd4dc58e87978ffed21f8.th.png
https://img15.lostpic.net/2020/04/05/e5b98e5a3815da3f9d9afc953de32b24.th.png https://img15.lostpic.net/2020/04/05/342f4b6ad9810c394afe2fa39132555d.th.png https://img15.lostpic.net/2020/04/05/e1eafe011f143c0686af5d3ed767fa24.th.png https://img15.lostpic.net/2020/04/05/d345675870a46d20177ff8b64e31ed65.th.png
http://korsar.tv/images/Banner-Korsar.gif http://korsar.tv/img/VKontakte.png  


Привет, гость
- Запомнить
Регистрация
Информация

Торрент трекер ExKinoRay.TV

Здесь вы можете скачать новые фильмы, сериалы, игры, музыку, софт и многое другое. Большая скорость скачивания на мультитрекерных раздачах. Всё абсолютно бесплатно.