Зеленая миля | The Green Mile | 1999 | BDRip (1080p) | - KORSAR | JPN Transfer Одобрено администрацией

Участники
  • Раздают0
  • Качают1
  • Просмотров45
  • Скачали2
  • Комментариев1
  • Список файлов1
Залил раздачу
Поблагодарить
Характеристики
Вес35.83 GB (38,475,446,474)
Залит2020-05-07 04:06:31 Обновлено2020-05-07 04:06:31
Сетевая Нет
Чтобы скачать, необходимо авторизоваться или зарегистрироваться.
Статус: Одобрено администрацией
Хотите видеть детали Раздачи пройдите авторизацию или регистрацию!

Спасибо за понимание...
Просьба отключить блокировщики рекламы на странице скриншотов по адресу: http://3.lostpic.net/, этим Вы поможете существованию проекта. Заранее спасибо!
x264 [info]: frame I:1803  Avg QP:16.15  size:395659x264 [info]: frame P:49858 Avg QP:17.56  size:218390x264 [info]: frame B:219808 Avg QP:20.05  size: 88025x264 [info]: consecutive B-frames:  1.2%  0.7%  3.2%  6.9% 14.3% 61.1%  7.2%  2.2%  1.6%  0.6%  0.9%  0.1%Общее
Уникальный идентификатор                 : 217806336909311559090030400661615480512 (0xA3DBF9818DEF74BDB9B7B5E9F40F0EC0)
Полное имя                               : D:\Зелёная миля_1999-BDRip 1080p_KORSAR.mkv
Формат                                   : Matroska
Версия формата                           : Version 2
Размер файла                             : 35,8 Гбайт
Продолжительность                        : 3 ч. 8 м.
Общий поток                              : 27,2 Мбит/сек
Название фильма                          : Зелёная миля_1999-BDRip 1080p_KORSAR
Дата кодирования                         : UTC 2020-05-06 22:19:08
Программа кодирования                    : mkvmerge v5.8.0 ('No Sleep / Pillow') built on Sep  2 2012 15:37:04
Библиотека кодирования                   : libebml v1.2.3 + libmatroska v1.3.0

Видео
Идентификатор                            : 1
Формат                                   : AVC
Формат/Информация                        : Advanced Video Codec
Профиль формата                          : High@L4.1
Настройки формата                        : CABAC / 4 Ref Frames
Параметр CABAC формата                   : Да
Параметр RefFrames формата               : 4 кадра
Идентификатор кодека                     : V_MPEG4/ISO/AVC
Продолжительность                        : 3 ч. 8 м.
Битрейт                                  : 21,3 Мбит/сек
Ширина                                   : 1 920 пикселей
Высота                                   : 1 040 пикселей
Соотношение сторон                       : 1,85:1
Режим частоты кадров                     : Постоянный
Частота кадров                           : 23,976 (24000/1001) кадра/сек
Цветовое пространство                    : YUV
Субдискретизация насыщенности            : 4:2:0
Битовая глубина                          : 8 бит
Тип развёртки                            : Прогрессивная
Бит/(Пиксели*Кадры)                      : 0.446
Размер потока                            : 28,1 Гбайт (78%)
Библиотека кодирования                   : x264 core 152 r2851kMod ba24899
Настройки программы                      : cabac=1 / ref=4 / deblock=1:-3:-3 / analyse=0x3:0x113 / me=umh / subme=11 / psy=1 / fade_compensate=0.00 / psy_rd=1.05:0.05 / mixed_ref=1 / me_range=48 / chroma_me=1 / trellis=2 / 8x8dct=1 / cqm=0 / deadzone=21,11 / fast_pskip=1 / chroma_qp_offset=-3 / threads=4 / lookahead_threads=1 / sliced_threads=0 / nr=0 / decimate=1 / interlaced=0 / bluray_compat=0 / constrained_intra=0 / bframes=11 / b_pyramid=2 / b_adapt=2 / b_bias=0 / direct=1 / weightb=1 / open_gop=0 / weightp=2 / keyint=240 / keyint_min=23 / scenecut=40 / intra_refresh=0 / rc_lookahead=40 / rc=crf / mbtree=0 / crf=17.3000 / qcomp=0.63 / qpmin=0 / qpmax=33 / qpstep=4 / vbv_maxrate=50000 / vbv_bufsize=62500 / crf_max=0.0 / nal_hrd=none / filler=0 / ip_ratio=1.40 / pb_ratio=1.30 / aq=2:0.70
Язык                                     : English
Default                                  : Да
Forced                                   : Нет
Цветовой диапазон                        : Limited
Основные цвета                           : BT.709
Характеристики трансфера                 : BT.709
Коэффициенты матрицы                     : BT.709
Duration_Source                          : General_Duration

Аудио #1
Идентификатор                            : 2
Формат                                   : AC-3
Формат/Информация                        : Audio Coding 3
Коммерческое название                    : Dolby Digital
Идентификатор кодека                     : A_AC3
Продолжительность                        : 3 ч. 8 м.
Вид битрейта                             : Постоянный
Битрейт                                  : 384 Кбит/сек
Каналы                                   : 6 каналов
Channel layout                           : L R C LFE Ls Rs
Частота                                  : 48,0 КГц
Частота кадров                           : 31,250 кадров/сек (1536 SPF)
Метод сжатия                             : С потерями
Размер потока                            : 518 Мбайт (1%)
Заголовок                                : Дубляж
Язык                                     : Russian
Service kind                             : Complete Main
Default                                  : Да
Forced                                   : Нет
Statistics Tags Issue                    : mkvmerge v28.2.0 ('The Awakening') 64-bit 2019-02-28 20:02:38 / mkvmerge v5.8.0 ('No Sleep / Pillow') built on Sep  2 2012 15:37:04 2020-05-06 22:19:08
FromStats_BitRate                        : 384000
FromStats_Duration                       : 03:08:42.528000000
FromStats_FrameCount                     : 353829
FromStats_StreamSize                     : 543481344
Duration_Source                          : General_Duration

Аудио #2
Идентификатор                            : 3
Формат                                   : AC-3
Формат/Информация                        : Audio Coding 3
Коммерческое название                    : Dolby Digital
Идентификатор кодека                     : A_AC3
Продолжительность                        : 3 ч. 8 м.
Вид битрейта                             : Постоянный
Битрейт                                  : 448 Кбит/сек
Каналы                                   : 2 канала
Channel layout                           : L R
Частота                                  : 48,0 КГц
Частота кадров                           : 31,250 кадров/сек (1536 SPF)
Метод сжатия                             : С потерями
Размер потока                            : 605 Мбайт (2%)
Заголовок                                : MVO
Язык                                     : Russian
Service kind                             : Complete Main
Default                                  : Нет
Forced                                   : Нет
Statistics Tags Issue                    : mkvmerge v28.2.0 ('The Awakening') 64-bit 2019-02-28 20:02:38 / mkvmerge v5.8.0 ('No Sleep / Pillow') built on Sep  2 2012 15:37:04 2020-05-06 22:19:08
FromStats_BitRate                        : 448000
FromStats_Duration                       : 03:08:39.968000000
FromStats_FrameCount                     : 353749
FromStats_StreamSize                     : 633918208
Duration_Source                          : General_Duration

Аудио #3
Идентификатор                            : 4
Формат                                   : AC-3
Формат/Информация                        : Audio Coding 3
Коммерческое название                    : Dolby Digital
Идентификатор кодека                     : A_AC3
Продолжительность                        : 3 ч. 8 м.
Вид битрейта                             : Постоянный
Битрейт                                  : 640 Кбит/сек
Каналы                                   : 6 каналов
Channel layout                           : L R C LFE Ls Rs
Частота                                  : 48,0 КГц
Частота кадров                           : 31,250 кадров/сек (1536 SPF)
Метод сжатия                             : С потерями
Размер потока                            : 864 Мбайт (2%)
Заголовок                                : AVO Гаврилов
Язык                                     : Russian
Service kind                             : Complete Main
Default                                  : Нет
Forced                                   : Нет
Statistics Tags Issue                    : mkvmerge v28.2.0 ('The Awakening') 64-bit 2019-02-28 20:02:38 / mkvmerge v5.8.0 ('No Sleep / Pillow') built on Sep  2 2012 15:37:04 2020-05-06 22:19:08
FromStats_BitRate                        : 640000
FromStats_Duration                       : 03:08:42.592000000
FromStats_FrameCount                     : 353831
FromStats_StreamSize                     : 905807360
Duration_Source                          : General_Duration

Аудио #4
Идентификатор                            : 5
Формат                                   : AC-3
Формат/Информация                        : Audio Coding 3
Коммерческое название                    : Dolby Digital
Идентификатор кодека                     : A_AC3
Продолжительность                        : 3 ч. 8 м.
Вид битрейта                             : Постоянный
Битрейт                                  : 640 Кбит/сек
Каналы                                   : 6 каналов
Channel layout                           : L R C LFE Ls Rs
Частота                                  : 48,0 КГц
Частота кадров                           : 31,250 кадров/сек (1536 SPF)
Метод сжатия                             : С потерями
Размер потока                            : 864 Мбайт (2%)
Заголовок                                : AVO Живов
Язык                                     : Russian
Service kind                             : Complete Main
Default                                  : Нет
Forced                                   : Нет
Statistics Tags Issue                    : mkvmerge v28.2.0 ('The Awakening') 64-bit 2019-02-28 20:02:38 / mkvmerge v5.8.0 ('No Sleep / Pillow') built on Sep  2 2012 15:37:04 2020-05-06 22:19:08
FromStats_BitRate                        : 640000
FromStats_Duration                       : 03:08:42.560000000
FromStats_FrameCount                     : 353830
FromStats_StreamSize                     : 905804800
Duration_Source                          : General_Duration

Аудио #5
Идентификатор                            : 6
Формат                                   : AC-3
Формат/Информация                        : Audio Coding 3
Коммерческое название                    : Dolby Digital
Идентификатор кодека                     : A_AC3
Продолжительность                        : 3 ч. 8 м.
Вид битрейта                             : Постоянный
Битрейт                                  : 640 Кбит/сек
Каналы                                   : 6 каналов
Channel layout                           : L R C LFE Ls Rs
Частота                                  : 48,0 КГц
Частота кадров                           : 31,250 кадров/сек (1536 SPF)
Метод сжатия                             : С потерями
Размер потока                            : 864 Мбайт (2%)
Заголовок                                : AVO Сербин
Язык                                     : Russian
Service kind                             : Complete Main
Default                                  : Нет
Forced                                   : Нет
Statistics Tags Issue                    : mkvmerge v28.2.0 ('The Awakening') 64-bit 2019-02-28 20:02:38 / mkvmerge v5.8.0 ('No Sleep / Pillow') built on Sep  2 2012 15:37:04 2020-05-06 22:19:08
FromStats_BitRate                        : 640000
FromStats_Duration                       : 03:08:42.560000000
FromStats_FrameCount                     : 353830
FromStats_StreamSize                     : 905804800
Duration_Source                          : General_Duration

Аудио #6
Идентификатор                            : 7
Формат                                   : AC-3
Формат/Информация                        : Audio Coding 3
Коммерческое название                    : Dolby Digital
Идентификатор кодека                     : A_AC3
Продолжительность                        : 3 ч. 8 м.
Вид битрейта                             : Постоянный
Битрейт                                  : 640 Кбит/сек
Каналы                                   : 6 каналов
Channel layout                           : L R C LFE Ls Rs
Частота                                  : 48,0 КГц
Частота кадров                           : 31,250 кадров/сек (1536 SPF)
Метод сжатия                             : С потерями
Размер потока                            : 864 Мбайт (2%)
Заголовок                                : AVO Матвеев (Doctor_Joker)
Язык                                     : Russian
Service kind                             : Complete Main
Default                                  : Нет
Forced                                   : Нет
Statistics Tags Issue                    : mkvmerge v28.2.0 ('The Awakening') 64-bit 2019-02-28 20:02:38 / mkvmerge v5.8.0 ('No Sleep / Pillow') built on Sep  2 2012 15:37:04 2020-05-06 22:19:08
FromStats_BitRate                        : 640000
FromStats_Duration                       : 03:08:42.880000000
FromStats_FrameCount                     : 353840
FromStats_StreamSize                     : 905830400
Duration_Source                          : General_Duration

Аудио #7
Идентификатор                            : 8
Формат                                   : AC-3
Формат/Информация                        : Audio Coding 3
Коммерческое название                    : Dolby Digital
Идентификатор кодека                     : A_AC3
Продолжительность                        : 3 ч. 8 м.
Вид битрейта                             : Постоянный
Битрейт                                  : 640 Кбит/сек
Каналы                                   : 6 каналов
Channel layout                           : L R C LFE Ls Rs
Частота                                  : 48,0 КГц
Частота кадров                           : 31,250 кадров/сек (1536 SPF)
Метод сжатия                             : С потерями
Размер потока                            : 864 Мбайт (2%)
Заголовок                                : Original
Язык                                     : English
Service kind                             : Complete Main
Default                                  : Нет
Forced                                   : Нет
Statistics Tags Issue                    : mkvmerge v28.2.0 ('The Awakening') 64-bit 2019-02-28 20:02:38 / mkvmerge v5.8.0 ('No Sleep / Pillow') built on Sep  2 2012 15:37:04 2020-05-06 22:19:08
FromStats_BitRate                        : 640000
FromStats_Duration                       : 03:08:42.528000000
FromStats_FrameCount                     : 353829
FromStats_StreamSize                     : 905802240
Duration_Source                          : General_Duration

Аудио #8
Идентификатор                            : 9
Формат                                   : AC-3
Формат/Информация                        : Audio Coding 3
Коммерческое название                    : Dolby Digital
Идентификатор кодека                     : A_AC3
Продолжительность                        : 3 ч. 8 м.
Вид битрейта                             : Постоянный
Битрейт                                  : 640 Кбит/сек
Каналы                                   : 6 каналов
Channel layout                           : L R C LFE Ls Rs
Частота                                  : 48,0 КГц
Частота кадров                           : 31,250 кадров/сек (1536 SPF)
Метод сжатия                             : С потерями
Размер потока                            : 864 Мбайт (2%)
Заголовок                                : AVO- Гоблин (пучков)
Язык                                     : Russian
Service kind                             : Complete Main
Default                                  : Нет
Forced                                   : Нет
Duration_Source                          : General_Duration

Аудио #9
Идентификатор                            : 10
Формат                                   : AC-3
Формат/Информация                        : Audio Coding 3
Коммерческое название                    : Dolby Digital
Идентификатор кодека                     : A_AC3
Продолжительность                        : 3 ч. 8 м.
Вид битрейта                             : Постоянный
Битрейт                                  : 640 Кбит/сек
Каналы                                   : 6 каналов
Channel layout                           : L R C LFE Ls Rs
Частота                                  : 48,0 КГц
Частота кадров                           : 31,250 кадров/сек (1536 SPF)
Метод сжатия                             : С потерями
Размер потока                            : 864 Мбайт (2%)
Заголовок                                : AVO Диктор CDV
Язык                                     : Russian
Service kind                             : Complete Main
Default                                  : Нет
Forced                                   : Нет
Statistics Tags Issue                    : mkvmerge v28.2.0 ('The Awakening') 64-bit 2019-02-28 20:02:38 / mkvmerge v5.8.0 ('No Sleep / Pillow') built on Sep  2 2012 15:37:04 2020-05-06 22:19:08
FromStats_BitRate                        : 640000
FromStats_Duration                       : 03:08:42.560000000
FromStats_FrameCount                     : 353830
FromStats_StreamSize                     : 905804800
Duration_Source                          : General_Duration

Текст #1
Идентификатор                            : 11
Формат                                   : UTF-8
Идентификатор кодека                     : S_TEXT/UTF8
Идентификатор кодека/Информация          : UTF-8 Plain Text
Заголовок                                : rus full
Язык                                     : Russian
Default                                  : Нет
Forced                                   : Нет
Statistics Tags Issue                    : mkvmerge v28.2.0 ('The Awakening') 64-bit 2019-02-28 20:02:38 / mkvmerge v5.8.0 ('No Sleep / Pillow') built on Sep  2 2012 15:37:04 2020-05-06 22:19:08
FromStats_BitRate                        : 67
FromStats_Duration                       : 02:58:34.970000000
FromStats_FrameCount                     : 1516
FromStats_StreamSize                     : 90883

Текст #2
Идентификатор                            : 12
Формат                                   : UTF-8
Идентификатор кодека                     : S_TEXT/UTF8
Идентификатор кодека/Информация          : UTF-8 Plain Text
Заголовок                                : eng
Язык                                     : English
Default                                  : Нет
Forced                                   : Нет
Statistics Tags Issue                    : mkvmerge v28.2.0 ('The Awakening') 64-bit 2019-02-28 20:02:38 / mkvmerge v5.8.0 ('No Sleep / Pillow') built on Sep  2 2012 15:37:04 2020-05-06 22:19:08
FromStats_BitRate                        : 43
FromStats_Duration                       : 02:58:31.616000000
FromStats_FrameCount                     : 2073
FromStats_StreamSize                     : 57865

Текст #3
Идентификатор                            : 13
Формат                                   : UTF-8
Идентификатор кодека                     : S_TEXT/UTF8
Идентификатор кодека/Информация          : UTF-8 Plain Text
Заголовок                                : eng SDH
Язык                                     : English
Default                                  : Нет
Forced                                   : Нет
Statistics Tags Issue                    : mkvmerge v28.2.0 ('The Awakening') 64-bit 2019-02-28 20:02:38 / mkvmerge v5.8.0 ('No Sleep / Pillow') built on Sep  2 2012 15:37:04 2020-05-06 22:19:08
FromStats_BitRate                        : 48
FromStats_Duration                       : 02:59:14.117000000
FromStats_FrameCount                     : 2391
FromStats_StreamSize                     : 64690

Меню
00:00:00.000                             : en:00:00:00.000
00:09:31.070                             : en:00:09:31.070
00:19:14.487                             : en:00:19:14.487
00:30:56.772                             : en:00:30:56.772
00:41:52.635                             : en:00:41:52.635
00:51:20.035                             : en:00:51:20.035
01:00:42.889                             : en:01:00:42.889
01:08:58.217                             : en:01:08:58.217
01:20:07.261                             : en:01:20:07.261
01:27:41.756                             : en:01:27:41.756
01:37:04.444                             : en:01:37:04.444
01:48:07.106                             : en:01:48:07.106
01:59:56.564                             : en:01:59:56.564
02:10:57.725                             : en:02:10:57.725
02:21:27.270                             : en:02:21:27.270
02:34:31.554                             : en:02:34:31.554
02:53:06.418                             : en:02:53:06.418
03:00:40.288                             : en:03:00:40.288
https://img12.lostpic.net/2020/04/15/2c0eeb0eefa0e3c488b7e2aaddfea72f.th.png https://img12.lostpic.net/2020/04/15/9eafb8a212bc3121f8a4ad1fb6e61a16.th.png https://img12.lostpic.net/2020/04/15/6c5a965b6fa14664c4e2cdeefb747bd0.th.png https://img12.lostpic.net/2020/04/15/f1e7ea69ec980f1a5785908113cc7d96.th.png https://img12.lostpic.net/2020/04/15/df9c26aaeb4bb20d0eb2d4232153d65f.th.png https://img12.lostpic.net/2020/04/15/cbbc0e715798361a06ed6a90cacb5f62.th.png https://img12.lostpic.net/2020/04/15/42e34d052cf9dd19a216fa4341f04f14.th.png https://img12.lostpic.net/2020/04/15/8e225140e8a3987d8b926698791d284f.th.png https://img12.lostpic.net/2020/04/15/4f97fe2a3f416261c74bea00b3a01d65.th.png https://img12.lostpic.net/2020/04/15/ba30290f835b2675b40253ecf0f0e4f3.th.png https://img12.lostpic.net/2020/04/15/dbf0f10568dc8231d354c35c003f20dd.th.png https://img12.lostpic.net/2020/04/15/02e48f76038c76db6227652bcc491240.th.png https://img12.lostpic.net/2020/04/15/219d64558657cff8a08986b91540a22f.th.png https://img12.lostpic.net/2020/04/15/256192bc52e9eb2aa2f84818f48910d6.th.png https://img12.lostpic.net/2020/04/15/2a9d298c50d70299c1e8835fa5295919.th.png https://img12.lostpic.net/2020/04/15/f195eb926e1b9ba7dc6345d00acd15e0.th.png https://img12.lostpic.net/2020/04/15/464893dace94985849423f8293c9421d.th.png https://img12.lostpic.net/2020/04/15/7b52323354f3b91ec018a2923428137a.th.png https://img12.lostpic.net/2020/04/15/c7fd396c64cf26fc8f1c4ed6027312f2.th.png https://img12.lostpic.net/2020/04/15/e3db2bb6bfbfc0d3c078acf2c2eadfd6.th.png  
http://korsar.tv/images/Banner-Korsar.gif http://korsar.tv/img/VKontakte.png  

Enigma | 2020-05-07 04:06:05
 
Добавлена дорога Гоблин (Пучков)!
  |

Страницы:  1 
Привет, гость
- Запомнить
Регистрация
Информация

Торрент трекер ExKinoRay.TV

Здесь вы можете скачать новые фильмы, сериалы, игры, музыку, софт и многое другое. Большая скорость скачивания на мультитрекерных раздачах. Всё абсолютно бесплатно.