Россия молодая | 1982 | WEBRip (720p) | - KORSAR Одобрено администрацией

Участники
  • Раздают4
  • Качают1
  • Просмотров28
  • Скачали0
  • Комментариев0
  • Список файлов9
Залил раздачу
Поблагодарить
Характеристики
Вес36.23 GB (38,898,636,677)
Залит2020-05-02 11:15:18 Обновлено2020-05-02 11:16:28
Сетевая Нет
   https://a.radikal.ru/a20/1803/8d/0323a36ccadd.gif
Чтобы скачать, необходимо авторизоваться или зарегистрироваться.
Статус: Одобрено администрацией
Хотите видеть детали Раздачи пройдите авторизацию или регистрацию!

Спасибо за понимание...
Просьба отключить блокировщики рекламы на странице скриншотов по адресу: http://3.lostpic.net/, этим Вы поможете существованию проекта. Заранее спасибо!
x264 [info]: frame I:477   Avg QP:19.41  size:133175x264 [info]: frame P:22675 Avg QP:20.93  size: 84281x264 [info]: frame B:76572 Avg QP:22.77  size: 26974Общее
Уникальный идентификатор                 : 244368631577378784191533167233016187239 (0xB7D7AFBE9EB952FE843B34F4196AC967)
Полное имя                               : D:\Россия молодая_1982-WEB-DLRip 720p\Россия-1.mkv
Формат                                   : Matroska
Версия формата                           : Version 2
Размер файла                             : 3,94 Гбайт
Продолжительность                        : 1 ч. 6 м.
Общий поток                              : 8488 Кбит/сек
Дата кодирования                         : UTC 2017-08-03 19:57:08
Программа кодирования                    : mkvmerge v5.8.0 ('No Sleep / Pillow') built on Sep  2 2012 15:37:04
Библиотека кодирования                   : libebml v1.2.3 + libmatroska v1.3.0

Видео
Идентификатор                            : 1
Формат                                   : AVC
Формат/Информация                        : Advanced Video Codec
Профиль формата                          : High@L4.1
Параметр CABAC формата                   : Да
Параметр ReFrames формата                : 11 кадров
Идентификатор кодека                     : V_MPEG4/ISO/AVC
Продолжительность                        : 1 ч. 6 м.
Битрейт                                  : 7935 Кбит/сек
Ширина                                   : 968 пикселей
Высота                                   : 720 пикселей
Соотношение сторон                       : 4:3
Режим частоты кадров                     : Постоянный
Частота кадров                           : 25,000 кадров/сек
Цветовое пространство                    : YUV
Субдискретизация насыщенности            : 4:2:0
Битовая глубина                          : 8 бит
Тип развёртки                            : Прогрессивная
Бит/(Пиксели*Кадры)                      : 0.455
Размер потока                            : 3,69 Гбайт (93%)
Заголовок                                : filbi1976.org
Библиотека кодирования                   : x264 core 148 r2744kMod b97ae06
Настройки программы                      : cabac=1 / ref=11 / deblock=1:-2:-2 / analyse=0x3:0x113 / me=umh / subme=10 / psy=1 / fade_compensate=0.00 / psy_rd=1.05:0.00 / mixed_ref=1 / me_range=32 / chroma_me=1 / trellis=2 / 8x8dct=1 / cqm=0 / deadzone=21,11 / fast_pskip=1 / chroma_qp_offset=-2 / threads=12 / lookahead_threads=2 / sliced_threads=0 / nr=0 / decimate=1 / interlaced=0 / bluray_compat=0 / constrained_intra=0 / bframes=9 / b_pyramid=2 / b_adapt=2 / b_bias=0 / direct=1 / weightb=1 / open_gop=0 / weightp=2 / keyint=250 / keyint_min=25 / scenecut=40 / intra_refresh=0 / rc=crf / mbtree=0 / crf=18.0000 / qcomp=0.63 / qpmin=0 / qpmax=39 / qpstep=4 / ip_ratio=1.40 / pb_ratio=1.30 / aq=3:0.70
Язык                                     : English
Default                                  : Да
Forced                                   : Нет
Цветовой диапазон                        : Limited
Основные цвета                           : BT.709
Характеристики трансфера                 : BT.709
Коэффициенты матрицы                     : BT.709

Аудио
Идентификатор                            : 2
Формат                                   : AC-3
Формат/Информация                        : Audio Coding 3
Параметр Endianness формата              : Big
Идентификатор кодека                     : A_AC3
Продолжительность                        : 1 ч. 6 м.
Вид битрейта                             : Постоянный
Битрейт                                  : 384 Кбит/сек
Каналы                                   : 6 каналов
Расположение каналов                     : Front: L C R, Side: L R, LFE
Частота                                  : 48,0 КГц
Частота кадров                           : 31,250 кадров/сек (1536 spf)
Битовая глубина                          : 16 бит
Метод сжатия                             : С потерями
Размер потока                            : 183 Мбайт (5%)
Язык                                     : Russian
ServiceKind/String                       : Complete Main
Default                                  : Да
Forced                                   : Нет

Меню
00:00:00.000                             : ru:Chapter 1
00:03:52.680                             : ru:Chapter 2
00:11:02.640                             : ru:Chapter 3
00:19:24.000                             : ru:Chapter 4
00:27:14.880                             : ru:Chapter 5
00:30:30.480                             : ru:Chapter 6
00:36:08.160                             : ru:Chapter 7
00:42:20.760                             : ru:Chapter 8
00:46:05.640                             : ru:Chapter 9
00:50:06.600                             : ru:Chapter 10
00:57:48.000                             : ru:Chapter 11
01:03:55.800                             : ru:Chapter 12
01:06:28.480                             : ru:Chapter 13

http://img10.lostpic.net/2017/08/03/ba1266f80e70fda9d99479cf3260bffb.th.png http://img11.lostpic.net/2017/08/03/8d29c132fa3943b5c6e20f70465b2aa7.th.png http://img12.lostpic.net/2017/08/03/ecedf883335aebb36e31b0d7a2626518.th.png http://img10.lostpic.net/2017/08/03/3714757ecea956f424507141b718b211.th.png http://img11.lostpic.net/2017/08/03/eb3d3aa2c876cdcd534a5944ad5a651c.th.png http://img12.lostpic.net/2017/08/03/113ed4ae8b8ff2f71d33eef164ba83dc.th.png http://img10.lostpic.net/2017/08/03/04fd552c7bed0ff8528936549cd0e471.th.png http://img11.lostpic.net/2017/08/03/66a63aada1cea5219925f8c592923444.th.png  
http://korsar.tv/images/Banner-Korsar.gif http://korsar.tv/img/VKontakte.png  


Привет, гость
- Запомнить
Регистрация
Информация

Торрент трекер ExKinoRay.TV

Здесь вы можете скачать новые фильмы, сериалы, игры, музыку, софт и многое другое. Большая скорость скачивания на мультитрекерных раздачах. Всё абсолютно бесплатно.