Новая Франция | Nouvelle-France | Battle of the brave | 2004 | WEB-DL (1080p) | Dub - KORSAR Одобрено администрацией

Участники
  • Раздают20
  • Качают7
  • Просмотров49
  • Скачали4
  • Комментариев0
  • Список файлов1
Залил раздачу
Поблагодарить
Характеристики
Вес10.18 GB (10,927,287,885)
Залит2020-05-03 12:33:09 Обновлено2020-05-03 17:14:31
Сетевая Да
   https://a.radikal.ru/a20/1803/8d/0323a36ccadd.gif
Чтобы скачать, необходимо авторизоваться или зарегистрироваться.
Статус: Одобрено администрацией
Хотите видеть детали Раздачи пройдите авторизацию или регистрацию!

Спасибо за понимание...
Просьба отключить блокировщики рекламы на странице скриншотов по адресу: http://3.lostpic.net/, этим Вы поможете существованию проекта. Заранее спасибо!
Формат: MKV
Видео: MPEG-4 AVC, 1920x1080, 10000 Кбит/с, 25.000 кадр/с
Аудио 1: Русская, AC3 384 Кбит/с, 6 канала(ов),16bit 48,0 КГц Дублированный (Мосфильм-мастер)
Аудио 2: English, E-AC3 640 Кбит/с, 6 канала(ов),16bit 48,0 КГц
Субтитры: Русские, English, English SDH
Навигация по главам: Нет


General
Unique ID                   : 203610943378812824867150394428220824848 (0x992E0A91B51A3A1643823352FCF8DD10)
Complete name               : H:\HDFILMS\Новая Франция (2004) 1080p AMZN WEB-DL 1080p - KORSAR.mkv
Format                      : Matroska
Format version              : Version 4 / Version 2
File size                   : 10.2 GiB
Duration                    : 2 h 17 min
Overall bit rate            : 10.6 Mb/s
Movie name                  : Nouvelle-France - Battle of the Brave (2004)
Encoded date                : UTC 2020-04-17 09:42:49
Writing application         : mkvmerge v37.0.0 ('Leave It') 64-bit
Writing library             : libebml v1.3.9 + libmatroska v1.5.2
Cover                       : Yes
Attachments                 : cover10.jpg

Video
ID                          : 1
Format                      : AVC
Format/Info                 : Advanced Video Codec
Format profile              : High@L4
Format settings             : CABAC / 4 Ref Frames
Format settings, CABAC      : Yes
Format settings, ReFrames   : 4 frames
Codec ID                    : V_MPEG4/ISO/AVC
Duration                    : 2 h 17 min
Bit rate mode               : Constant
Bit rate                    : 10 000 kb/s
Width                       : 1 920 pixels
Height                      : 1 080 pixels
Display aspect ratio        : 16:9
Frame rate mode             : Constant
Frame rate                  : 25.000 FPS
Color space                 : YUV
Chroma subsampling          : 4:2:0
Bit depth                   : 8 bits
Scan type                   : Progressive
Bits/(Pixel*Frame)          : 0.193
Stream size                 : 9.19 GiB (90%)
Language                    : English
Default                     : Yes
Forced                      : No
Color range                 : Limited
Color primaries             : BT.709
Transfer characteristics    : BT.709
Matrix coefficients         : BT.709

Audio #1
ID                          : 2
Format                      : AC-3
Format/Info                 : Audio Coding 3
Commercial name             : Dolby Digital
Codec ID                    : A_AC3
Duration                    : 2 h 17 min
Bit rate mode               : Constant
Bit rate                    : 384 kb/s
Channel(s)                  : 6 channels
Channel layout              : L R C LFE Ls Rs
Sampling rate               : 48.0 kHz
Frame rate                  : 31.250 FPS (1536 SPF)
Bit depth                   : 16 bits
Compression mode            : Lossy
Stream size                 : 377 MiB (4%)
Title                       : DUB
Language                    : Russian
Service kind                : Complete Main
Default                     : No
Forced                      : No

Audio #2
ID                          : 3
Format                      : E-AC-3
Format/Info                 : Enhanced AC-3
Commercial name             : Dolby Digital Plus
Codec ID                    : A_EAC3
Duration                    : 2 h 17 min
Bit rate mode               : Constant
Bit rate                    : 640 kb/s
Channel(s)                  : 6 channels
Channel layout              : L R C LFE Ls Rs
Sampling rate               : 48.0 kHz
Frame rate                  : 31.250 FPS (1536 SPF)
Compression mode            : Lossy
Stream size                 : 629 MiB (6%)
Language                    : English
Service kind                : Complete Main
Default                     : No
Forced                      : No

Text #1
ID                          : 4
Format                      : UTF-8
Codec ID                    : S_TEXT/UTF8
Codec ID/Info               : UTF-8 Plain Text
Duration                    : 2 h 11 min
Bit rate                    : 72 b/s
Count of elements           : 1183
Stream size                 : 70.4 KiB (0%)
Language                    : Russian
Default                     : No
Forced                      : No

Text #2
ID                          : 5
Format                      : UTF-8
Codec ID                    : S_TEXT/UTF8
Codec ID/Info               : UTF-8 Plain Text
Duration                    : 2 h 7 min
Bit rate                    : 43 b/s
Count of elements           : 1333
Stream size                 : 40.9 KiB (0%)
Language                    : English
Default                     : No
Forced                      : No

Text #3
ID                          : 6
Format                      : UTF-8
Codec ID                    : S_TEXT/UTF8
Codec ID/Info               : UTF-8 Plain Text
Duration                    : 2 h 12 min
Bit rate                    : 44 b/s
Count of elements           : 1422
Stream size                 : 42.9 KiB (0%)
Title                       : SDH
Language                    : English
Default                     : No
Forced                      : No
https://img12.lostpic.net/2020/04/17/04c6d56000dc573a7de7dbc4db3f5108.th.png https://img12.lostpic.net/2020/04/17/bcc1955b6c1b44b1cb83314c4e559477.th.png https://img12.lostpic.net/2020/04/17/c2a4d9788be3eb62d69d55cfddbab0b5.th.png https://img12.lostpic.net/2020/04/17/312ed94eac9e8cd765ab31a218611d6f.th.png https://img12.lostpic.net/2020/04/17/c743c0e7b3c6d63e1c1f00f695a13782.th.png https://img12.lostpic.net/2020/04/17/6929927ef5685fe17e5dc1df748e2c71.th.png  
http://korsar.tv/images/Banner-Korsar.gif http://korsar.tv/img/VKontakte.png  


Привет, гость
- Запомнить
Регистрация
Информация

Торрент трекер ExKinoRay.TV

Здесь вы можете скачать новые фильмы, сериалы, игры, музыку, софт и многое другое. Большая скорость скачивания на мультитрекерных раздачах. Всё абсолютно бесплатно.