Зеленая миля | The Green Mile | 1999 | BDRip (720p) | - KORSAR | JPN Transfer Одобрено администрацией

Участники
  • Раздают1
  • Качают0
  • Просмотров27
  • Скачали0
  • Комментариев1
  • Список файлов1
Залил раздачу
Поблагодарить
Характеристики
Вес17.32 GB (18,594,883,248)
Залит2020-05-07 02:38:18 Обновлено2020-05-07 02:43:09
Сетевая Нет
   https://a.radikal.ru/a20/1803/8d/0323a36ccadd.gif
Чтобы скачать, необходимо авторизоваться или зарегистрироваться.
Статус: Одобрено администрацией
Хотите видеть детали Раздачи пройдите авторизацию или регистрацию!

Спасибо за понимание...
Просьба отключить блокировщики рекламы на странице скриншотов по адресу: http://3.lostpic.net/, этим Вы поможете существованию проекта. Заранее спасибо!
x264 [info]: frame I:1995  Avg QP:16.08  size:185740x264 [info]: frame P:49967 Avg QP:17.80  size: 78866x264 [info]: frame B:219507 Avg QP:20.51  size: 30792x264 [info]: consecutive B-frames:  1.3%  0.9%  3.2%  8.9% 15.1% 54.1%  8.4%  2.9%  2.2%  1.2%  0.7%  0.4%  0.3%  0.6%  0.2%Общее
Уникальный идентификатор                 : 185563838787243338995640921342406098169 (0x8B9A4B9D78CB38A3B67D453CC300FCF9)
Полное имя                               : D:\Зелёная миля_1999-BDRip 720p_KORSAR.mkv
Формат                                   : Matroska
Версия формата                           : Version 2
Размер файла                             : 17,3 Гбайт
Продолжительность                        : 3 ч. 8 м.
Общий поток                              : 13,1 Мбит/сек
Название фильма                          : Зелёная миля_1999-BDRip 1080p_KORSAR
Дата кодирования                         : UTC 2020-05-06 22:53:36
Программа кодирования                    : mkvmerge v5.8.0 ('No Sleep / Pillow') built on Sep  2 2012 15:37:04
Библиотека кодирования                   : libebml v1.2.3 + libmatroska v1.3.0

Видео
Идентификатор                            : 1
Формат                                   : AVC
Формат/Информация                        : Advanced Video Codec
Профиль формата                          : High@L4.1
Настройки формата                        : CABAC / 9 Ref Frames
Параметр CABAC формата                   : Да
Параметр RefFrames формата               : 9 кадров
Идентификатор кодека                     : V_MPEG4/ISO/AVC
Продолжительность                        : 3 ч. 8 м.
Битрейт                                  : 7 564 Кбит/сек
Ширина                                   : 1 278 пикселей
Высота                                   : 692 пикселя
Соотношение сторон                       : 1,85:1
Режим частоты кадров                     : Постоянный
Частота кадров                           : 23,976 (24000/1001) кадра/сек
Цветовое пространство                    : YUV
Субдискретизация насыщенности            : 4:2:0
Битовая глубина                          : 8 бит
Тип развёртки                            : Прогрессивная
Бит/(Пиксели*Кадры)                      : 0.357
Размер потока                            : 9,97 Гбайт (58%)
Библиотека кодирования                   : x264 core 152 r2851kMod ba24899
Настройки программы                      : cabac=1 / ref=9 / deblock=1:-3:-3 / analyse=0x3:0x113 / me=umh / subme=11 / psy=1 / fade_compensate=0.00 / psy_rd=1.05:0.07 / mixed_ref=1 / me_range=48 / chroma_me=1 / trellis=2 / 8x8dct=1 / cqm=0 / deadzone=21,11 / fast_pskip=1 / chroma_qp_offset=-3 / threads=4 / lookahead_threads=1 / sliced_threads=0 / nr=0 / decimate=1 / interlaced=0 / bluray_compat=0 / constrained_intra=0 / bframes=14 / b_pyramid=2 / b_adapt=2 / b_bias=0 / direct=1 / weightb=1 / open_gop=0 / weightp=2 / keyint=240 / keyint_min=23 / scenecut=40 / intra_refresh=0 / rc_lookahead=40 / rc=crf / mbtree=0 / crf=17.3000 / qcomp=0.63 / qpmin=0 / qpmax=33 / qpstep=4 / vbv_maxrate=50000 / vbv_bufsize=62500 / crf_max=0.0 / nal_hrd=none / filler=0 / ip_ratio=1.40 / pb_ratio=1.30 / aq=2:0.70
Язык                                     : English
Default                                  : Да
Forced                                   : Нет
Цветовой диапазон                        : Limited
Основные цвета                           : BT.709
Характеристики трансфера                 : BT.709
Коэффициенты матрицы                     : BT.709
Duration_Source                          : General_Duration

Аудио #1
Идентификатор                            : 2
Формат                                   : AC-3
Формат/Информация                        : Audio Coding 3
Коммерческое название                    : Dolby Digital
Идентификатор кодека                     : A_AC3
Продолжительность                        : 3 ч. 8 м.
Вид битрейта                             : Постоянный
Битрейт                                  : 384 Кбит/сек
Каналы                                   : 6 каналов
Channel layout                           : L R C LFE Ls Rs
Частота                                  : 48,0 КГц
Частота кадров                           : 31,250 кадров/сек (1536 SPF)
Метод сжатия                             : С потерями
Размер потока                            : 518 Мбайт (3%)
Заголовок                                : Дубляж
Язык                                     : Russian
Service kind                             : Complete Main
Default                                  : Да
Forced                                   : Нет
Statistics Tags Issue                    : mkvmerge v28.2.0 ('The Awakening') 64-bit 2019-02-28 20:02:38 / mkvmerge v5.8.0 ('No Sleep / Pillow') built on Sep  2 2012 15:37:04 2020-05-06 22:53:36
FromStats_BitRate                        : 384000
FromStats_Duration                       : 03:08:42.528000000
FromStats_FrameCount                     : 353829
FromStats_StreamSize                     : 543481344
Duration_Source                          : General_Duration

Аудио #2
Идентификатор                            : 3
Формат                                   : AC-3
Формат/Информация                        : Audio Coding 3
Коммерческое название                    : Dolby Digital
Идентификатор кодека                     : A_AC3
Продолжительность                        : 3 ч. 8 м.
Вид битрейта                             : Постоянный
Битрейт                                  : 448 Кбит/сек
Каналы                                   : 2 канала
Channel layout                           : L R
Частота                                  : 48,0 КГц
Частота кадров                           : 31,250 кадров/сек (1536 SPF)
Метод сжатия                             : С потерями
Размер потока                            : 605 Мбайт (3%)
Заголовок                                : MVO
Язык                                     : Russian
Service kind                             : Complete Main
Default                                  : Нет
Forced                                   : Нет
Statistics Tags Issue                    : mkvmerge v28.2.0 ('The Awakening') 64-bit 2019-02-28 20:02:38 / mkvmerge v5.8.0 ('No Sleep / Pillow') built on Sep  2 2012 15:37:04 2020-05-06 22:53:36
FromStats_BitRate                        : 448000
FromStats_Duration                       : 03:08:39.968000000
FromStats_FrameCount                     : 353749
FromStats_StreamSize                     : 633918208
Duration_Source                          : General_Duration

Аудио #3
Идентификатор                            : 4
Формат                                   : AC-3
Формат/Информация                        : Audio Coding 3
Коммерческое название                    : Dolby Digital
Идентификатор кодека                     : A_AC3
Продолжительность                        : 3 ч. 8 м.
Вид битрейта                             : Постоянный
Битрейт                                  : 640 Кбит/сек
Каналы                                   : 6 каналов
Channel layout                           : L R C LFE Ls Rs
Частота                                  : 48,0 КГц
Частота кадров                           : 31,250 кадров/сек (1536 SPF)
Метод сжатия                             : С потерями
Размер потока                            : 864 Мбайт (5%)
Заголовок                                : AVO Гаврилов
Язык                                     : Russian
Service kind                             : Complete Main
Default                                  : Нет
Forced                                   : Нет
Statistics Tags Issue                    : mkvmerge v28.2.0 ('The Awakening') 64-bit 2019-02-28 20:02:38 / mkvmerge v5.8.0 ('No Sleep / Pillow') built on Sep  2 2012 15:37:04 2020-05-06 22:53:36
FromStats_BitRate                        : 640000
FromStats_Duration                       : 03:08:42.592000000
FromStats_FrameCount                     : 353831
FromStats_StreamSize                     : 905807360
Duration_Source                          : General_Duration

Аудио #4
Идентификатор                            : 5
Формат                                   : AC-3
Формат/Информация                        : Audio Coding 3
Коммерческое название                    : Dolby Digital
Идентификатор кодека                     : A_AC3
Продолжительность                        : 3 ч. 8 м.
Вид битрейта                             : Постоянный
Битрейт                                  : 640 Кбит/сек
Каналы                                   : 6 каналов
Channel layout                           : L R C LFE Ls Rs
Частота                                  : 48,0 КГц
Частота кадров                           : 31,250 кадров/сек (1536 SPF)
Метод сжатия                             : С потерями
Размер потока                            : 864 Мбайт (5%)
Заголовок                                : AVO Живов
Язык                                     : Russian
Service kind                             : Complete Main
Default                                  : Нет
Forced                                   : Нет
Statistics Tags Issue                    : mkvmerge v28.2.0 ('The Awakening') 64-bit 2019-02-28 20:02:38 / mkvmerge v5.8.0 ('No Sleep / Pillow') built on Sep  2 2012 15:37:04 2020-05-06 22:53:36
FromStats_BitRate                        : 640000
FromStats_Duration                       : 03:08:42.560000000
FromStats_FrameCount                     : 353830
FromStats_StreamSize                     : 905804800
Duration_Source                          : General_Duration

Аудио #5
Идентификатор                            : 6
Формат                                   : AC-3
Формат/Информация                        : Audio Coding 3
Коммерческое название                    : Dolby Digital
Идентификатор кодека                     : A_AC3
Продолжительность                        : 3 ч. 8 м.
Вид битрейта                             : Постоянный
Битрейт                                  : 640 Кбит/сек
Каналы                                   : 6 каналов
Channel layout                           : L R C LFE Ls Rs
Частота                                  : 48,0 КГц
Частота кадров                           : 31,250 кадров/сек (1536 SPF)
Метод сжатия                             : С потерями
Размер потока                            : 864 Мбайт (5%)
Заголовок                                : AVO Сербин
Язык                                     : Russian
Service kind                             : Complete Main
Default                                  : Нет
Forced                                   : Нет
Statistics Tags Issue                    : mkvmerge v28.2.0 ('The Awakening') 64-bit 2019-02-28 20:02:38 / mkvmerge v5.8.0 ('No Sleep / Pillow') built on Sep  2 2012 15:37:04 2020-05-06 22:53:36
FromStats_BitRate                        : 640000
FromStats_Duration                       : 03:08:42.560000000
FromStats_FrameCount                     : 353830
FromStats_StreamSize                     : 905804800
Duration_Source                          : General_Duration

Аудио #6
Идентификатор                            : 7
Формат                                   : AC-3
Формат/Информация                        : Audio Coding 3
Коммерческое название                    : Dolby Digital
Идентификатор кодека                     : A_AC3
Продолжительность                        : 3 ч. 8 м.
Вид битрейта                             : Постоянный
Битрейт                                  : 640 Кбит/сек
Каналы                                   : 6 каналов
Channel layout                           : L R C LFE Ls Rs
Частота                                  : 48,0 КГц
Частота кадров                           : 31,250 кадров/сек (1536 SPF)
Метод сжатия                             : С потерями
Размер потока                            : 864 Мбайт (5%)
Заголовок                                : AVO Матвеев (Doctor_Joker)
Язык                                     : Russian
Service kind                             : Complete Main
Default                                  : Нет
Forced                                   : Нет
Statistics Tags Issue                    : mkvmerge v28.2.0 ('The Awakening') 64-bit 2019-02-28 20:02:38 / mkvmerge v5.8.0 ('No Sleep / Pillow') built on Sep  2 2012 15:37:04 2020-05-06 22:53:36
FromStats_BitRate                        : 640000
FromStats_Duration                       : 03:08:42.880000000
FromStats_FrameCount                     : 353840
FromStats_StreamSize                     : 905830400
Duration_Source                          : General_Duration

Аудио #7
Идентификатор                            : 8
Формат                                   : AC-3
Формат/Информация                        : Audio Coding 3
Коммерческое название                    : Dolby Digital
Идентификатор кодека                     : A_AC3
Продолжительность                        : 3 ч. 8 м.
Вид битрейта                             : Постоянный
Битрейт                                  : 640 Кбит/сек
Каналы                                   : 6 каналов
Channel layout                           : L R C LFE Ls Rs
Частота                                  : 48,0 КГц
Частота кадров                           : 31,250 кадров/сек (1536 SPF)
Метод сжатия                             : С потерями
Размер потока                            : 864 Мбайт (5%)
Заголовок                                : AVO Диктор CDV
Язык                                     : Russian
Service kind                             : Complete Main
Default                                  : Нет
Forced                                   : Нет
Statistics Tags Issue                    : mkvmerge v28.2.0 ('The Awakening') 64-bit 2019-02-28 20:02:38 / mkvmerge v5.8.0 ('No Sleep / Pillow') built on Sep  2 2012 15:37:04 2020-05-06 22:53:36
FromStats_BitRate                        : 640000
FromStats_Duration                       : 03:08:42.560000000
FromStats_FrameCount                     : 353830
FromStats_StreamSize                     : 905804800
Duration_Source                          : General_Duration

Аудио #8
Идентификатор                            : 9
Формат                                   : AC-3
Формат/Информация                        : Audio Coding 3
Коммерческое название                    : Dolby Digital
Идентификатор кодека                     : A_AC3
Продолжительность                        : 3 ч. 8 м.
Вид битрейта                             : Постоянный
Битрейт                                  : 640 Кбит/сек
Каналы                                   : 6 каналов
Channel layout                           : L R C LFE Ls Rs
Частота                                  : 48,0 КГц
Частота кадров                           : 31,250 кадров/сек (1536 SPF)
Метод сжатия                             : С потерями
Размер потока                            : 864 Мбайт (5%)
Заголовок                                : AVO-Гоблин (пучков)
Язык                                     : Russian
Service kind                             : Complete Main
Default                                  : Нет
Forced                                   : Нет
Duration_Source                          : General_Duration

Аудио #9
Идентификатор                            : 10
Формат                                   : AC-3
Формат/Информация                        : Audio Coding 3
Коммерческое название                    : Dolby Digital
Идентификатор кодека                     : A_AC3
Продолжительность                        : 3 ч. 8 м.
Вид битрейта                             : Постоянный
Битрейт                                  : 640 Кбит/сек
Каналы                                   : 6 каналов
Channel layout                           : L R C LFE Ls Rs
Частота                                  : 48,0 КГц
Частота кадров                           : 31,250 кадров/сек (1536 SPF)
Метод сжатия                             : С потерями
Размер потока                            : 864 Мбайт (5%)
Заголовок                                : Original
Язык                                     : English
Service kind                             : Complete Main
Default                                  : Нет
Forced                                   : Нет
Statistics Tags Issue                    : mkvmerge v28.2.0 ('The Awakening') 64-bit 2019-02-28 20:02:38 / mkvmerge v5.8.0 ('No Sleep / Pillow') built on Sep  2 2012 15:37:04 2020-05-06 22:53:36
FromStats_BitRate                        : 640000
FromStats_Duration                       : 03:08:42.528000000
FromStats_FrameCount                     : 353829
FromStats_StreamSize                     : 905802240
Duration_Source                          : General_Duration

Текст #1
Идентификатор                            : 11
Формат                                   : UTF-8
Идентификатор кодека                     : S_TEXT/UTF8
Идентификатор кодека/Информация          : UTF-8 Plain Text
Заголовок                                : rus full
Язык                                     : Russian
Default                                  : Нет
Forced                                   : Нет
Statistics Tags Issue                    : mkvmerge v28.2.0 ('The Awakening') 64-bit 2019-02-28 20:02:38 / mkvmerge v5.8.0 ('No Sleep / Pillow') built on Sep  2 2012 15:37:04 2020-05-06 22:53:36
FromStats_BitRate                        : 67
FromStats_Duration                       : 02:58:34.970000000
FromStats_FrameCount                     : 1516
FromStats_StreamSize                     : 90883

Текст #2
Идентификатор                            : 12
Формат                                   : UTF-8
Идентификатор кодека                     : S_TEXT/UTF8
Идентификатор кодека/Информация          : UTF-8 Plain Text
Заголовок                                : eng
Язык                                     : English
Default                                  : Нет
Forced                                   : Нет
Statistics Tags Issue                    : mkvmerge v28.2.0 ('The Awakening') 64-bit 2019-02-28 20:02:38 / mkvmerge v5.8.0 ('No Sleep / Pillow') built on Sep  2 2012 15:37:04 2020-05-06 22:53:36
FromStats_BitRate                        : 43
FromStats_Duration                       : 02:58:31.616000000
FromStats_FrameCount                     : 2073
FromStats_StreamSize                     : 57865

Текст #3
Идентификатор                            : 13
Формат                                   : UTF-8
Идентификатор кодека                     : S_TEXT/UTF8
Идентификатор кодека/Информация          : UTF-8 Plain Text
Заголовок                                : eng SDH
Язык                                     : English
Default                                  : Нет
Forced                                   : Нет
Statistics Tags Issue                    : mkvmerge v28.2.0 ('The Awakening') 64-bit 2019-02-28 20:02:38 / mkvmerge v5.8.0 ('No Sleep / Pillow') built on Sep  2 2012 15:37:04 2020-05-06 22:53:36
FromStats_BitRate                        : 48
FromStats_Duration                       : 02:59:14.117000000
FromStats_FrameCount                     : 2391
FromStats_StreamSize                     : 64690

Меню
00:00:00.000                             : en:00:00:00.000
00:09:31.070                             : en:00:09:31.070
00:19:14.487                             : en:00:19:14.487
00:30:56.772                             : en:00:30:56.772
00:41:52.635                             : en:00:41:52.635
00:51:20.035                             : en:00:51:20.035
01:00:42.889                             : en:01:00:42.889
01:08:58.217                             : en:01:08:58.217
01:20:07.261                             : en:01:20:07.261
01:27:41.756                             : en:01:27:41.756
01:37:04.444                             : en:01:37:04.444
01:48:07.106                             : en:01:48:07.106
01:59:56.564                             : en:01:59:56.564
02:10:57.725                             : en:02:10:57.725
02:21:27.270                             : en:02:21:27.270
02:34:31.554                             : en:02:34:31.554
02:53:06.418                             : en:02:53:06.418
03:00:40.288                             : en:03:00:40.288
https://img12.lostpic.net/2020/04/16/e04876fc54c94ab62a1707ced6932b4e.th.png https://img12.lostpic.net/2020/04/16/d38f3a5ebbd4e2fdb6ffe9811725dea8.th.png https://img12.lostpic.net/2020/04/16/5cdbbfb140e37a9f2bb1fb4f3cf7ec8f.th.png https://img12.lostpic.net/2020/04/16/8d80185076a92b8a524846cd9b36adfa.th.png https://img12.lostpic.net/2020/04/16/c3a03c6957a9b23b46df50ab138a0e90.th.png https://img12.lostpic.net/2020/04/16/7f194546c4c43cabb4608b7bffd4adb5.th.png https://img12.lostpic.net/2020/04/16/a9b196b1dc34a1dd9ba129847e252bf8.th.png https://img12.lostpic.net/2020/04/16/eadffadb136274004039f907699dd03b.th.png https://img12.lostpic.net/2020/04/16/13ede3be5c9e373578401fd4f592162c.th.png https://img12.lostpic.net/2020/04/16/5ab4472a93d44851c37b98e13e471367.th.png https://img12.lostpic.net/2020/04/16/b8c3437ac806913b039920a420f7db72.th.png https://img12.lostpic.net/2020/04/16/5d3aa61ee380082d8a7dfa3e5185fdf9.th.png https://img12.lostpic.net/2020/04/16/e5a9919bd124cae203f9641f703be77a.th.png https://img12.lostpic.net/2020/04/16/8ebd1ae121241270f2ea98c50fcfd6d0.th.png https://img12.lostpic.net/2020/04/16/1a1cfaf0aade5b78653c4bf4071f0a1c.th.png https://img12.lostpic.net/2020/04/16/324f206a0ed192688a3d594b5ebf0295.th.png  
http://korsar.tv/images/Banner-Korsar.gif http://korsar.tv/img/VKontakte.png  

filbi1976 | 2020-05-07 02:43:31
 
Добавлена дорога Гоблин (Пучков)!

  |

Страницы:  1 
Привет, гость
- Запомнить
Регистрация
Информация

Торрент трекер ExKinoRay.TV

Здесь вы можете скачать новые фильмы, сериалы, игры, музыку, софт и многое другое. Большая скорость скачивания на мультитрекерных раздачах. Всё абсолютно бесплатно.